Tags
Language
Tags

How Bruce Lee Changed the World (2009)

Posted By: Tavaz
720p (HD) / HDTV IMDb
How Bruce Lee Changed the World (2009)

How Bruce Lee Changed the World (2009)
HDTV | MKV | 1280x720 | Russian / English | H264 @ 6516 kbps | MPEG Audio @ 192 kbps | 1 h 30 min | 4.49 GiB
Genre: Documentary

More than just a biography, this film explores Bruce Lee's global impact to see how he has influenced all areas of popular culture including fitness, cinema, music, sport, dance, video games and philosophy. A journey across the United States, Asia and Europe, takes Shannon Lee on a trip back to her father's roots in Hong Kong and China. With unique access to the family's photographic archive, home movies and all material owned by the Bruce Lee Foundation.

How.Bruce.Lee.Changed.the.World.720p.HDTV.DD2.0.x264-CtrlHD.mkv (4.5 GB)



General
Unique ID : 179969568525682434888615409069223041664 (0x8764E0CBD49A1613B4A356A872B7DA80)
Complete name : ./How.Bruce.Lee.Changed.the.World.720p.HDTV.DD2.0.x264-CtrlHD.mkv
Format : Matroska
Format version : Version 1
File size : 4.49 GiB
Duration : 1 h 30 min
Overall bit rate : 7 098 kb/s
Encoded date : UTC 2010-03-19 20:58:43
Writing application : mkvmerge v2.4.1 ('Use Me') built on Dec 5 2008 18:30:05
Writing library : libebml v0.7.7 + libmatroska v0.8.1

Video
ID : 1
Format : AVC
Format/Info : Advanced Video Codec
Format profile : Main@L3.1
Format settings : CABAC / 5 Ref Frames
Format settings, CABAC : Yes
Format settings, RefFrames : 5 frames
Codec ID : V_MPEG4/ISO/AVC
Duration : 1 h 30 min
Bit rate : 6 516 kb/s
Width : 1 280 pixels
Height : 720 pixels
Display aspect ratio : 16:9
Frame rate mode : Constant
Frame rate : 29.970 (30000/1001) FPS
Color space : YUV
Chroma subsampling : 4:2:0
Bit depth : 8 bits
Scan type : Progressive
Bits/(Pixel*Frame) : 0.236
Stream size : 4.04 GiB (90%)
Writing library : x264 core 67 r1165M 6841c5e
Encoding settings : cabac=1 / ref=5 / deblock=1:-3:-3 / analyse=0x1:0x111 / me=umh / subme=8 / psy_rd=1.0:0.0 / mixed_ref=1 / me_range=16 / chroma_me=1 / trellis=2 / 8x8dct=0 / cqm=0 / deadzone=21,11 / chroma_qp_offset=-2 / threads=12 / nr=0 / decimate=1 / mbaff=0 / bframes=4 / b_pyramid=1 / b_adapt=1 / b_bias=0 / direct=3 / wpredb=1 / keyint=250 / keyint_min=25 / scenecut=40 / rc=2pass / bitrate=6516 / ratetol=1.0 / qcomp=0.60 / qpmin=10 / qpmax=51 / qpstep=4 / cplxblur=20.0 / qblur=0.5 / ip_ratio=1.40 / pb_ratio=1.30 / aq=1:1.00
Language : English
Default : Yes
Forced : No

Audio #1
ID : 2
Format : MPEG Audio
Format version : Version 1
Format profile : Layer 3
Format settings : Joint stereo / MS Stereo
Mode : Joint stereo
Mode extension : MS Stereo
Codec ID : A_MPEG/L3
Codec ID/Hint : MP3
Duration : 1 h 30 min
Bit rate mode : Constant
Bit rate : 192 kb/s
Channel(s) : 2 channels
Sampling rate : 48.0 kHz
Compression mode : Lossy
Delay relative to video : 180 ms
Stream size : 124 MiB (3%)
Language : Russian
Default : Yes
Forced : No

Audio #2
ID : 3
Format : AC-3
Format/Info : Audio Coding 3
Format settings, Endianness : Big
Codec ID : A_AC3
Duration : 1 h 30 min
Bit rate mode : Constant
Bit rate : 384 kb/s
Channel(s) : 2 channels
Channel positions : Front: L R
Sampling rate : 48.0 kHz
Frame rate : 31.250 FPS (1536 SPF)
Bit depth : 16 bits
Compression mode : Lossy
Delay relative to video : 32 ms
Stream size : 249 MiB (5%)
Language : English
Service kind : Complete Main
Default : No
Forced : No





How Bruce Lee Changed the World (2009)


How Bruce Lee Changed the World (2009)


How Bruce Lee Changed the World (2009)


How Bruce Lee Changed the World (2009)


How Bruce Lee Changed the World (2009)