Tags
Language
Tags

How to Eat Your Watermelon in White Company (and Enjoy It) (2005)

Posted By: Tavaz
1080p (FullHD) / BDRip IMDb
How to Eat Your Watermelon in White Company (and Enjoy It) (2005)

How to Eat Your Watermelon in White Company (and Enjoy It) (2005)
BDRip | MKV | 1920x1054 | English | H264 @ 11548 kbps | AC-3 @ 192 kbps | 1 h 24 min | 6.95 GiB
Genre: Documentary

Feature-length documentary on renegade filmmaker, novelist, musician and theater impresario, Melvin Van Peebles.

How.to.Eat.Your.Watermelon.in.White.Company.2005.BluRay.1080p.DD1.0.x264-BMDru.mkv (6.9 GB)



General
Unique ID : 59706071992592814502787791591533494370 (0x2CEAF89FFD00180C411F237E813CC062)
Complete name : ./How.to.Eat.Your.Watermelon.in.White.Company.2005.BluRay.1080p.DD1.0.x264-BMDru.mkv
Format : Matroska
Format version : Version 4 / Version 2
File size : 6.95 GiB
Duration : 1 h 24 min
Overall bit rate : 11.7 Mb/s
Movie name : 頂好精品論壇 http://bmdruchinyan.freebbs.tw/index.php
Encoded date : UTC 2021-10-12 14:24:31
Writing application : mkvmerge v21.0.0 ('Tardigrades Will Inherit The Earth') 64-bit
Writing library : libebml v1.3.5 + libmatroska v1.4.8

Video
ID : 1
Format : AVC
Format/Info : Advanced Video Codec
Format profile : High@L5.1
Format settings : CABAC / 16 Ref Frames
Format settings, CABAC : Yes
Format settings, RefFrames : 16 frames
Codec ID : V_MPEG4/ISO/AVC
Duration : 1 h 24 min
Bit rate : 11.5 Mb/s
Width : 1 920 pixels
Height : 1 054 pixels
Display aspect ratio : 1.85:1
Frame rate mode : Constant
Frame rate : 29.970 (29970/1000) FPS
Original frame rate : 29.970 (30000/1001) FPS
Color space : YUV
Chroma subsampling : 4:2:0
Bit depth : 8 bits
Scan type : Progressive
Bits/(Pixel*Frame) : 0.190
Stream size : 6.83 GiB (98%)
Title : http://bmdruchinyan.freebbs.tw/index.php
Writing library : x264 core 157 r2969 d4099dd
Encoding settings : cabac=1 / ref=16 / deblock=1:-3:-3 / analyse=0x3:0x113 / me=umh / subme=11 / psy=1 / psy_rd=1.00:0.00 / mixed_ref=1 / me_range=48 / chroma_me=1 / trellis=2 / 8x8dct=1 / cqm=0 / deadzone=21,11 / fast_pskip=1 / chroma_qp_offset=-2 / threads=24 / lookahead_threads=2 / sliced_threads=0 / nr=0 / decimate=0 / interlaced=0 / bluray_compat=0 / constrained_intra=0 / bframes=16 / b_pyramid=2 / b_adapt=1 / b_bias=0 / direct=1 / weightb=0 / open_gop=0 / weightp=2 / keyint=300 / keyint_min=29 / scenecut=40 / intra_refresh=0 / rc_lookahead=40 / rc=2pass / mbtree=1 / bitrate=11548 / ratetol=1.0 / qcomp=0.60 / qpmin=10 / qpmax=51 / qpstep=4 / cplxblur=20.0 / qblur=0.5 / ip_ratio=1.40 / aq=1:1.00
Default : Yes
Forced : No

Audio
ID : 2
Format : AC-3
Format/Info : Audio Coding 3
Format settings, Endianness : Big
Codec ID : A_AC3
Duration : 1 h 24 min
Bit rate mode : Constant
Bit rate : 192 kb/s
Channel(s) : 1 channel
Channel positions : Front: C
Sampling rate : 48.0 kHz
Frame rate : 31.250 FPS (1536 SPF)
Bit depth : 16 bits
Compression mode : Lossy
Stream size : 117 MiB (2%)
Language : English
Service kind : Complete Main
Default : Yes
Forced : No





How to Eat Your Watermelon in White Company (and Enjoy It) (2005)


How to Eat Your Watermelon in White Company (and Enjoy It) (2005)


How to Eat Your Watermelon in White Company (and Enjoy It) (2005)


How to Eat Your Watermelon in White Company (and Enjoy It) (2005)


How to Eat Your Watermelon in White Company (and Enjoy It) (2005)