BBC - How Art Made the World (2006)

Posted By: Tutorial
SD / DVDRip
BBC - How Art Made the World (2006)

BBC - How Art Made the World (2006)
DVDRip | 704 x 384 | .AVI/XviD@ 1454 Kbps | 5x~59mn | 3.42 GB
Audio: English AC-3 192 Kbps, 2 channels | Subs: None
Genre: Documentary

Embark on a thrilling journey through time and five continents to the heart of creativity. Fusing social history, politics, science, nature, archaeology and religion, this international landmark series unravels a universal mystery - why the world around us looks like it does. Modern-day mysteries are answered by journeying back to the beginning of civilisation via some of the most amazing man-made creations in the world.

A strong narrative thread drives through each film as exciting scientific demonstrations reveal how our minds, and those of our ancient ancestors, relate to art. Beautiful, surprising, compelling and above all, relevant, with a visual ambition worthy of its epic subject-matter, this awe-inspiring adventure will appeal not only to art lovers, but to anyone who has ever wondered about humanity's place in the world.

Programme One - More Human Than Human…
One image dominates our contemporary world above all others: the human body. How Art Made the World travels from the modern world of advertising to the temples of classical Greece and the tombs of ancient Egypt to solve the mystery of why humans surround themselves with images of the body that are so unrealistic.

Programme Two - The Day Pictures Were Born
The discovery of prehistoric cave paintings in the last century led to the shocking realisation that humans have been creating art for over 30,000 years. Episode two reveals how the very first pictures ever made were created, and how images may have triggered the greatest change in human history.

Programme Three - The Art of Persuasion
The visual devices used by Tony Blair and George Bush to get themselves elected and maintain power, come not from modern times, but a world that is thousands of years old. How Art Made the World ventures back to the creation of Stonehenge and the reign of Alexander the Great to reveal how imagery became an indispensable weapon in every leader's political armoury.

Programme Four - Once Upon a Time
Each year over seven billion people across the world are drawn to see the latest feature films in the cinema. This episode reveals how the most powerful storytelling medium ever created exploits visual techniques invented by artists in the ancient world.

Programme Five - To Death and Back
Today in the 21st Century people see fewer real dead bodies than at any time in history. Yet in the modern world we seem almost obsessed with images of death. In an investigation encompassing ancient Jericho, Aztec America, and classical Italy, How Art Made the World discovers what it is that has compelled human beings to surround themselves with images of death for thousands of years.

General
Complete name : BBC.How.Art.Made.the.World.1of5.More.Human.Than.Human.avi
Format : AVI
Format/Info : Audio Video Interleave
File size : 701 MiB
Duration : 59 min 14 s
Overall bit rate : 1 656 kb/s
Writing application : VirtualDubMod 1.5.10.2 (build 2540/release)
Writing library : VirtualDubMod build 2540/release

Video
ID : 0
Format : MPEG-4 Visual
Format profile : Advanced Simple@L5
Format settings, BVOP : No
Format settings, QPel : No
Format settings, GMC : No warppoints
Format settings, Matrix : Default (H.263)
Codec ID : XVID
Codec ID/Hint : XviD
Duration : 59 min 14 s
Bit rate : 1 454 kb/s
Width : 704 pixels
Height : 384 pixels
Display aspect ratio : 1.85:1
Frame rate : 25.000 FPS
Color space : YUV
Chroma subsampling : 4:2:0
Bit depth : 8 bits
Scan type : Interlaced
Scan order : Bottom Field First
Compression mode : Lossy
Bits/(Pixel*Frame) : 0.215
Stream size : 616 MiB (88%)
Writing library : XviD 1.2.0SMP (UTC 2006-01-08)

Audio
ID : 1
Format : AC-3
Format/Info : Audio Coding 3
Format settings, Endianness : Big
Codec ID : 2000
Duration : 59 min 13 s
Bit rate mode : Constant
Bit rate : 192 kb/s
Channel(s) : 2 channels
Channel positions : Front: L R
Sampling rate : 48.0 kHz
Frame rate : 31.250 FPS (1536 spf)
Bit depth : 16 bits
Compression mode : Lossy
Stream size : 81.3 MiB (12%)
Alignment : Split accross interleaves
Interleave, duration : 40 ms (1.00 video frame)
Interleave, preload duration : 500 ms
Service kind : Complete Main
Screenshots

BBC - How Art Made the World (2006)

BBC - How Art Made the World (2006)

BBC - How Art Made the World (2006)

Welcome to my blog - daily update!

BBC - How Art Made the World (2006)