Tags
Language
Tags

Science Channel - How It's Made: Series 27 (2017)

Posted By: Tutorial
Science Channel - How It's Made: Series 27 (2017)

Science Channel - How It's Made: Series 27 (2017)
HDTV | 1280 x 720 | .MP4/AVC @ 2857 Kbps | 13x~22mn | 5.95 GB
Audio: English AAC 128 Kbps, 2 channels | Subs: None
Genre: Documentary, Technology

Ever wondered how things are made? Find out how the everyday objects become the things they are. Each episode features four or five products.
Part 1: CNC Assembly Machines
Find out how CNC Assembly Machines, Lemon Tarts and Miniature War Figures are made.

Part 2: Chemical Tank Pressure Vents
Find out how Chemical Tank Pressure Vents, Candy Wafers, Food Trucks and Traditional Ropes are made

Part 3: Graphene
Find out how Graphene, Worlds Smallest Car, Force Testers and Composite Cans are made

Part 4: LED Tubes
LED Tubes, Chocolate Peanut Butter Bars and Robotic Medication Dispensers are made in this episode

Part 5: Commercial Drones
In this episode Commercial Drones, Aquarium Fish, Runway Cleaners and Shuttlecocks are made

Part 6: Wooden Matches
Wooden Matches; Tillage Machines; Telescopic Gangways; Mabe Pearls are made in this episode

Part 7: Mosquito Coils
Find out how Mosquito Coils; Solar-Assist Tricycles; Palm Oil; Fiberglass Chopper Guns are made

Part 8: Combination Squares
Find out how Combination Squares, Farmed Shrimp, Ball Valves, and String Trimmers are made.

Part 9: Chinese Style Furniture
In this episode we Feature: Chinese style furniture; Electrical Switches; Thai fish sauce; Cappers

Part 10: Mortars and Pestles
Featured in this episode are Mortars and Pestles; Bowling Lane Conditioners; Crematories; Wood Playsets

Part 11: Race Car Oil Tanks
In this episode find out how Race Car Oil Tanks, Plaster Moldings, Lemongrass oil, and Fly Tying Vises are made

Part 12: Coconut Charcoal
Coconut Charcoal; Dial Indicators; Wet Downdraft Tables; Bassoon Reeds are made in this episode

Part 13: Condoms
In this episode watch how Condoms, Classic Car Gauges; Chocolate Marble Cake; Ghillie Kettles; are made

also You can find my last: Technology-posts

General
Complete name : How.Its.Made.Series.27.01of13.CNC.Assembly.Machines.mp4
Format : MPEG-4
Format profile : Base Media
Codec ID : isom (isom/iso2/avc1/mp41)
File size : 470 MiB
Duration : 22 min 0 s
Overall bit rate mode : Variable
Overall bit rate : 2 990 kb/s
Encoded date : UTC 2017-08-24 15:06:53
Tagged date : UTC 2017-08-24 15:06:53
Writing application : Lavf51.12.1

Video
ID : 1
Format : AVC
Format/Info : Advanced Video Codec
Format profile : High@L4.1
Format settings, CABAC : No
Format settings, ReFrames : 2 frames
Format settings, GOP : M=1, N=12
Codec ID : avc1
Codec ID/Info : Advanced Video Coding
Duration : 21 min 59 s
Bit rate : 2 857 kb/s
Width : 1 280 pixels
Height : 720 pixels
Display aspect ratio : 16:9
Frame rate mode : Constant
Frame rate : 25.000 FPS
Color space : YUV
Chroma subsampling : 4:2:0
Bit depth : 8 bits
Scan type : Progressive
Bits/(Pixel*Frame) : 0.124
Stream size : 450 MiB (96%)
Encoded date : UTC 2017-08-24 15:06:53
Tagged date : UTC 2017-08-24 15:06:53

Audio
ID : 2
Format : AAC
Format/Info : Advanced Audio Codec
Format profile : LC
Codec ID : 40
Duration : 22 min 0 s
Bit rate mode : Variable
Bit rate : 128 kb/s
Channel(s) : 2 channels
Channel positions : Front: L R
Sampling rate : 48.0 kHz
Frame rate : 46.875 FPS (1024 spf)
Compression mode : Lossy
Stream size : 20.1 MiB (4%)
Encoded date : UTC 2017-08-24 15:06:53
Tagged date : UTC 2017-08-24 15:06:53
Screenshots

Science Channel - How It's Made: Series 27 (2017)

Science Channel - How It's Made: Series 27 (2017)

Science Channel - How It's Made: Series 27 (2017)

Science Channel - How It's Made: Series 27 (2017)

Welcome to my blog - daily update!

Science Channel - How It's Made: Series 27 (2017)