Tags
Language
Tags

ITV - How to Spend It Well at Christmas (2017)

Posted By: notbanned
720p (HD) / HDTV
ITV - How to Spend It Well at Christmas (2017)

ITV - How to Spend It Well at Christmas (2017)
HDTV | 1280x720 | .MP4/AVC @ 2426 Kbps | 3x~46min | 2.55 GiB
Audio: English AAC 160 kbps, 2 channels | Subs: None
Genre: Documentary

How To Spend It Well At Christmas: With Phillip Schofield This new three-part series features Phillip Schofield inviting celebrity guests, experts and members of the public to help him test the latest must-have festive buys. Each programme aims to give an insider’s guide to what to buy for Christmas by testing, rating and reviewing the very latest products.
Guest testers include Jonathan Ross, Rosemary Schrager, and Stacey Solomon.
Part 1: Toys
Phillip reveals the must-have toys for Christmas 2017, starting by tasking Jonathan Ross with examining the revival of nostalgic toys from Christmas’ past. Phillip also road tests some of the more unusual toys on offer this year, to try to determine if they make truly fabulous presents.

Part 2: Gifts and Gadgets
Phillip teams up with fellow enthusiast Vernon Kay to try out some of the most popular drones on the market – although their flying skills are put to shame by Luke Bannister, the 17-year-old UK drone racing champion. And the big gadget for this Christmas, the voice activated speaker, is put under the microscope.

Part 3: Food and Drink
This time, it’s all about food, drink and decoration – preparing for the best Christmas day ever. Joe Pasquale reveals all there is to know about crackers, while Jenny Agutter investigates the ultimate festive foodie gift - the hamper - showing how to put together a top notch version at the fraction of the price of the ones in posh department stores.

General
Complete name : How.To.Spend.It.Well.At.Christmas.With.Phillip.Schofield.Series.1.1of3.Toys.720p.mp4
Format : MPEG-4
Format profile : Base Media / Version 2
Codec ID : mp42 (mp42/isom/avc1)
File size : 859 MiB
Duration : 46 min 36 s
Overall bit rate mode : Variable
Overall bit rate : 2 576 kb/s

Video
ID : 1
Format : AVC
Format/Info : Advanced Video Codec
Format profile : High@L4.1
Format settings, CABAC : Yes
Format settings, ReFrames : 4 frames
Codec ID : avc1
Codec ID/Info : Advanced Video Coding
Duration : 46 min 36 s
Bit rate : 2 426 kb/s
Width : 1 280 pixels
Height : 720 pixels
Display aspect ratio : 16:9
Frame rate mode : Constant
Frame rate : 25.000 FPS
Color space : YUV
Chroma subsampling : 4:2:0
Bit depth : 8 bits
Scan type : Progressive
Bits/(Pixel*Frame) : 0.105
Stream size : 804 MiB (94%)
Encoding settings : cabac=1 / ref=1 / deblock=1:0:0 / analyse=0x3:0x3 / me=dia / subme=1 / psy=1 / psy_rd=1.00:0.00 / mixed_ref=0 / me_range=16 / chroma_me=1 / trellis=0 / 8x8dct=1 / cqm=0 / deadzone=21,11 / fast_pskip=1 / chroma_qp_offset=0 / threads=6 / lookahead_threads=1 / sliced_threads=0 / nr=0 / decimate=1 / interlaced=0 / bluray_compat=0 / constrained_intra=0 / bframes=3 / b_pyramid=2 / b_adapt=1 / b_bias=0 / direct=1 / weightb=1 / open_gop=0 / weightp=1 / keyint=250 / keyint_min=25 / scenecut=40 / intra_refresh=0 / rc_lookahead=0 / rc=abr / mbtree=0 / bitrate=2426 / ratetol=1.0 / qcomp=0.60 / qpmin=0 / qpmax=69 / qpstep=4 / vbv_maxrate=62500 / vbv_bufsize=78125 / nal_hrd=none / ip_ratio=1.40 / pb_ratio=1.30 / aq=1:1.00
Encoded date : UTC 2017-11-30 18:45:06
Tagged date : UTC 2017-11-30 19:10:38
Color range : Limited
Color primaries : BT.709
Transfer characteristics : BT.709
Matrix coefficients : BT.709

Audio
ID : 2
Format : AAC
Format/Info : Advanced Audio Codec
Format profile : LC
Codec ID : 40
Duration : 46 min 36 s
Bit rate mode : Variable
Bit rate : 160 kb/s
Maximum bit rate : 253 kb/s
Channel(s) : 2 channels
Channel positions : Front: L R
Sampling rate : 48.0 kHz
Frame rate : 46.875 FPS (1024 spf)
Compression mode : Lossy
Stream size : 53.3 MiB (6%)
Title : Stereo
Language : English
Encoded date : UTC 2017-11-30 18:45:06
Tagged date : UTC 2017-11-30 19:10:38


Screenshots:

ITV - How to Spend It Well at Christmas (2017)

ITV - How to Spend It Well at Christmas (2017)

ITV - How to Spend It Well at Christmas (2017)

ITV - How to Spend It Well at Christmas (2017)