Tags
Language
Tags
January 2023
Su Mo Tu We Th Fr Sa
1 2 3 4 5 6 7
8 9 10 11 12 13 14
15 16 17 18 19 20 21
22 23 24 25 26 27 28
29 30 31 1 2 3 4

Sci Ch - How the Universe Works Series 9 Part 4: Aliens of the Microcosmos (2021)

Posted By: Tutorial
1080p (FullHD) / HDTV IMDb
Sci Ch - How the Universe Works Series 9 Part 4: Aliens of the Microcosmos (2021)

Sci Ch - How the Universe Works Series 9 Part 4: Aliens of the Microcosmos (2021)
HDTV | 1920 x 1080 | .MP4/AVC @ 4502 Kbps | 42 min 4 s | 1.37 GB
Audio: English AAC 161 Kbps, 2 channels | Subs: English
Genre: Documentary

New discoveries reveal the power of microscopic alien organisms.
The discovery of extraterrestrial life might face an impossible challenge: the physics of the universe itself.

General
Complete name : How.the.Universe.Works.Series.9.Part.4.Aliens.of.the.Microcosmos.mp4
Format : MPEG-4
Format profile : Base Media
Codec ID : isom (isom)
File size : 1.37 GiB
Duration : 42 min 4 s
Overall bit rate mode : Variable
Overall bit rate : 4 665 kb/s
Encoded date : UTC 2021-04-08 19:21:51
Tagged date : UTC 2021-04-08 19:21:51

Video
ID : 1
Format : AVC
Format/Info : Advanced Video Codec
Format profile : High@L4.1
Format settings : CABAC / 4 Ref Frames
Format settings, CABAC : Yes
Format settings, Reference frames : 4 frames
Codec ID : avc1
Codec ID/Info : Advanced Video Coding
Duration : 42 min 4 s
Bit rate : 4 502 kb/s
Maximum bit rate : 9 036 kb/s
Width : 1 920 pixels
Height : 1 080 pixels
Display aspect ratio : 16:9
Frame rate mode : Constant
Frame rate : 29.970 (30000/1001) FPS
Standard : Component
Color space : YUV
Chroma subsampling : 4:2:0
Bit depth : 8 bits
Scan type : Progressive
Bits/(Pixel*Frame) : 0.072
Stream size : 1.32 GiB (96%)
Title : How.the.Universe.Works.Series.9.Part.4.Aliens.of.the.Microcosmos.1080p.HDTV.x264.AAC..org.mp4
Language : English
Tagged date : UTC 2021-04-08 19:22:51
Color range : Limited
Codec configuration box : avcC

Audio
ID : 2
Format : AAC LC
Format/Info : Advanced Audio Codec Low Complexity
Codec ID : mp4a-40-2
Duration : 42 min 4 s
Bit rate mode : Variable
Bit rate : 161 kb/s
Maximum bit rate : 193 kb/s
Channel(s) : 2 channels
Channel layout : L R
Sampling rate : 48.0 kHz
Frame rate : 46.875 FPS (1024 SPF)
Compression mode : Lossy
Stream size : 48.3 MiB (3%)
Title : How.the.Universe.Works.Series.9.Part.4.Aliens.of.the.Microcosmos.1080p.HDTV.x264.AAC..org.mp4
Language : English
Encoded date : UTC 2021-04-08 19:22:24
Tagged date : UTC 2021-04-08 19:22:51

Text
ID : 3
Format : Timed Text
Codec ID : tx3g
Duration : 42 min 0 s
Bit rate mode : Variable
Bit rate : 113 b/s
Stream size : 34.9 KiB (0%)
Title : How.the.Universe.Works.Series.9.Part.4.Aliens.of.the.Microcosmos.1080p.HDTV.x264.AAC..org.srt
Forced : No
Encoded date : UTC 2021-04-08 19:22:51
Tagged date : UTC 2021-04-08 19:22:51
Screenshots

Sci Ch - How the Universe Works Series 9 Part 4: Aliens of the Microcosmos (2021)

Sci Ch - How the Universe Works Series 9 Part 4: Aliens of the Microcosmos (2021)

Sci Ch - How the Universe Works Series 9 Part 4: Aliens of the Microcosmos (2021)

Welcome to my blog - daily update!