Tags
Language
Tags
June 2024
Su Mo Tu We Th Fr Sa
26 27 28 29 30 31 1
2 3 4 5 6 7 8
9 10 11 12 13 14 15
16 17 18 19 20 21 22
23 24 25 26 27 28 29
30 1 2 3 4 5 6

How to Be a Latin Lover (2017)

Posted By: JohnSmith
How to Be a Latin Lover (2017)

How to Be a Latin Lover (2017)
HDRip | AVI / XviD@1286 kb/s | 720x304 | 1h 55mn | 1.36 GB
English: AC3, 384 kb/s (6 ch) | Subtitles: English (forced), Dutch
WEB-DL 720p | MKV / AVC@3966 kb/s | 1280x530 | 1h 55mn | 3.58 GB
English: AC3, 384 kb/s (6 ch) | Subtitles: English (forced), Dutch
WEB-DL 1080p | MKV / AVC@4463 kb/s | 1912x792 | 1h 55mn | 3.99 GB
English: AC3, 384 kb/s (6 ch) | Subtitles: English (forced), Dutch
Genre: Comedy

Finding himself dumped after 25 years of marriage, a man who made a career of seducing rich older women must move in with his estranged sister, where he begins to learn the value of family.

IMDB - 3 nominations.



General
Complete name : D:\How.to.Be.a.Latin.Lover.2017.HDRip.XviD.AC3-EVO\How.to.Be.a.Latin.Lover.2017.HDRip.XviD.AC3-EVO.avi
Format : AVI
Format/Info : Audio Video Interleave
File size : 1.36 GiB
Duration : 1 h 55 min
Overall bit rate : 1 680 kb/s
Writing library : VirtualDub build 32593/release

Video
ID : 0
Format : MPEG-4 Visual
Format profile : Advanced Simple@L5
Format settings, BVOP : 2
Format settings, QPel : No
Format settings, GMC : No warppoints
Format settings, Matrix : Default (H.263)
Muxing mode : Packed bitstream
Codec ID : XVID
Codec ID/Hint : XviD
Duration : 1 h 55 min
Bit rate : 1 286 kb/s
Width : 720 pixels
Height : 304 pixels
Display aspect ratio : 2.35:1
Frame rate : 23.976 (24000/1001) FPS
Color space : YUV
Chroma subsampling : 4:2:0
Bit depth : 8 bits
Scan type : Progressive
Compression mode : Lossy
Bits/(Pixel*Frame) : 0.233
Stream size : 1 009 MiB (73%)
Writing library : XviD 66

Audio
ID : 1
Format : AC-3
Format/Info : Audio Coding 3
Mode extension : CM (complete main)
Format settings, Endianness : Big
Codec ID : 2000
Duration : 1 h 55 min
Bit rate mode : Constant
Bit rate : 384 kb/s
Channel(s) : 6 channels
Channel positions : Front: L C R, Side: L R, LFE
Sampling rate : 48.0 kHz
Frame rate : 31.250 FPS (1536 spf)
Bit depth : 16 bits
Compression mode : Lossy
Stream size : 318 MiB (23%)
Alignment : Aligned on interleaves





General
Unique ID : 177692792293670851326847336553150042550 (0x85AE630FAE3891FE91E9E3142CEE51B6)
Complete name : D:\How.to.Be.a.Latin.Lover.2017.720p.WEB-DL.H264.AC3-EVO\How.to.Be.a.Latin.Lover.2017.720p.WEB-DL.H264.AC3-EVO.mkv
Format : Matroska
Format version : Version 4 / Version 2
File size : 3.58 GiB
Duration : 1 h 55 min
Overall bit rate : 4 438 kb/s
Movie name : EVO
Encoded date : UTC 2017-07-31 14:07:17
Writing application : mkvmerge v6.7.0 ('Back to the Ground') 64bit built on Jan 8 2014 15:10:52
Writing library : libebml v1.3.0 + libmatroska v1.4.1

Video
ID : 1
Format : AVC
Format/Info : Advanced Video Codec
Format profile : Main@L3.1
Format settings, CABAC : No
Format settings, ReFrames : 2 frames
Codec ID : V_MPEG4/ISO/AVC
Duration : 1 h 55 min
Bit rate : 3 966 kb/s
Width : 1 280 pixels
Height : 530 pixels
Display aspect ratio : 2.40:1
Frame rate mode : Constant
Frame rate : 23.976 (24000/1001) FPS
Color space : YUV
Chroma subsampling : 4:2:0
Bit depth : 8 bits
Scan type : Progressive
Bits/(Pixel*Frame) : 0.244
Stream size : 3.20 GiB (89%)
Language : English
Default : Yes
Forced : No
Color range : Limited
Color primaries : BT.709
Transfer characteristics : BT.709
Matrix coefficients : BT.709

Audio
ID : 2
Format : AC-3
Format/Info : Audio Coding 3
Mode extension : CM (complete main)
Format settings, Endianness : Big
Codec ID : A_AC3
Duration : 1 h 55 min
Bit rate mode : Constant
Bit rate : 384 kb/s
Channel(s) : 6 channels
Channel positions : Front: L C R, Side: L R, LFE
Sampling rate : 48.0 kHz
Frame rate : 31.250 FPS (1536 spf)
Bit depth : 16 bits
Compression mode : Lossy
Stream size : 318 MiB (9%)
Language : English
Default : Yes
Forced : No

Text #1
ID : 3
Format : UTF-8
Codec ID : S_TEXT/UTF8
Codec ID/Info : UTF-8 Plain Text
Language : Dutch
Default : No
Forced : No

Text #2
ID : 4
Format : UTF-8
Codec ID : S_TEXT/UTF8
Codec ID/Info : UTF-8 Plain Text
Title : Forced
Language : English
Default : Yes
Forced : No

Menu
00:00:00.000 : en:1
00:07:24.000 : en:2
00:17:19.000 : en:3
00:27:02.000 : en:4
00:37:42.000 : en:5
00:46:54.000 : en:6
00:56:52.000 : en:7
01:06:41.000 : en:8
01:17:29.000 : en:9
01:28:14.000 : en:10
01:38:15.000 : en:11
01:48:36.000 : en:12





General
Unique ID : 190842128812041425608904611452000386534 (0x8F92DB67D2D43CF8A41340A16E5BBDE6)
Complete name : D:\How.to.Be.a.Latin.Lover.2017.1080p.WEB-DL.H264.AC3-EVO\How.to.Be.a.Latin.Lover.2017.1080p.WEB-DL.H264.AC3-EVO.mkv
Format : Matroska
Format version : Version 4 / Version 2
File size : 3.99 GiB
Duration : 1 h 55 min
Overall bit rate : 4 946 kb/s
Encoded date : UTC 2017-07-31 14:18:38
Writing application : mkvmerge v6.7.0 ('Back to the Ground') 64bit built on Jan 8 2014 15:10:52
Writing library : libebml v1.3.0 + libmatroska v1.4.1

Video
ID : 2
Format : AVC
Format/Info : Advanced Video Codec
Format profile : High@L4
Format settings, CABAC : Yes
Format settings, ReFrames : 5 frames
Codec ID : V_MPEG4/ISO/AVC
Duration : 1 h 55 min
Bit rate : 4 463 kb/s
Width : 1 912 pixels
Height : 792 pixels
Display aspect ratio : 2.40:1
Frame rate mode : Constant
Frame rate : 23.976 (24000/1001) FPS
Color space : YUV
Chroma subsampling : 4:2:0
Bit depth : 8 bits
Scan type : Progressive
Bits/(Pixel*Frame) : 0.123
Stream size : 3.61 GiB (90%)
Language : English
Default : Yes
Forced : No
Color range : Limited
Color primaries : BT.709
Transfer characteristics : BT.709
Matrix coefficients : BT.709

Audio
ID : 1
Format : AC-3
Format/Info : Audio Coding 3
Mode extension : CM (complete main)
Format settings, Endianness : Big
Codec ID : A_AC3
Duration : 1 h 55 min
Bit rate mode : Constant
Bit rate : 384 kb/s
Channel(s) : 6 channels
Channel positions : Front: L C R, Side: L R, LFE
Sampling rate : 48.0 kHz
Frame rate : 31.250 FPS (1536 spf)
Bit depth : 16 bits
Compression mode : Lossy
Stream size : 318 MiB (8%)
Language : English
Default : Yes
Forced : No

Text #1
ID : 3
Format : UTF-8
Codec ID : S_TEXT/UTF8
Codec ID/Info : UTF-8 Plain Text
Title : Dutch
Language : Dutch
Default : No
Forced : No

Text #2
ID : 4
Format : UTF-8
Codec ID : S_TEXT/UTF8
Codec ID/Info : UTF-8 Plain Text
Title : English-Forced
Language : English
Default : Yes
Forced : Yes

Menu
00:00:00.000 : en:1
00:07:24.000 : en:2
00:17:19.000 : en:3
00:27:02.000 : en:4
00:37:42.000 : en:5
00:46:54.000 : en:6
00:56:52.000 : en:7
01:06:41.000 : en:8
01:17:29.000 : en:9
01:28:14.000 : en:10
01:38:15.000 : en:11
01:48:36.000 : en:12




Screenshots HDRip

How to Be a Latin Lover (2017)

How to Be a Latin Lover (2017)

How to Be a Latin Lover (2017)


Screenshots WEB-DL 720p

How to Be a Latin Lover (2017)

How to Be a Latin Lover (2017)

How to Be a Latin Lover (2017)


Screenshots WEB-DL 1080p

How to Be a Latin Lover (2017)

How to Be a Latin Lover (2017)

How to Be a Latin Lover (2017)