Tags
Language
Tags

TVF - How to Look at a Painting: Series 1 (2011)

Posted By: Tutorial
1080p (FullHD) / HDTV
TVF - How to Look at a Painting: Series 1 (2011)

TVF - How to Look at a Painting: Series 1 (2011)
HDTV | 1920 x 1080 | .MP4/AVC @ 4556 Kbps | 12x~22mn | 9.18 GB
Audio: English AAC 160 Kbps, 2 channels | Subs: English
Genre: Documentary

Justin Paton is on a mission to show the rest of us why looking at a painting is worthwhile and to help us figure out how to do it. In this thought-provoking series, Paton demystifies art and answers the questions we might be too embarrassed to ask. What is there to see in an abstract painting? Why do portraits grab us? Is it wrong to feel exhausted by big-city museums? Why should we care about paintings anyway?

Part 1: …And Discover a New World
Paton takes us back to the place where he had his first brush with painting and fell in love with it. He shows how art connects us with the past and how the most important painting in your life is the one you're off to see next.


Part 2: …Of the Body
Through the ages, artists have had a love affair with the body. But now that painting no longer has the naked body to itself, can painting still get under our skin?


Part 3: …Of a Place
Landscape painting has the power to capture not only how the scenery looks but also how a place feels. By zeroing in on New Zealand landscapes, Paton shows how artists can paint what we don't see at first.


Part 4: …And Connect the Old and New
Drawing inspiration from the painted past, today's artists can give a fresh lease on life to old works. In the process, they are bridging the gap between the new and the old-in this episode, between New Zealand and old Venice.


Part 5: …Of a Face
When it comes to portraits, how can paint compete with pixels? Are painted portraits worth looking at in our digital age? Find out how they can look back in time, at the wider culture, and at us.


Part 6: …And Take a Leap of Faith
When religious art came down from the walls of churches, it began a new life on gallery walls. Paton shows how religious work still addresses the big questions about our place and purpose in life and whether there is something bigger than ourselves worth believing in.


Part 7: …Of Nothing
Paton takes on the challenge of abstract art-paintings that sometimes "look like nothing.” He finds there is always something to say about these paintings that, instead of leaving the world behind, can often bring it closer.


Part 8: …That Wants to Change the World
Once a form of propaganda to tell history from the victors' perspective, painting has become a way of speaking truth to power-a seemingly silent medium that is a voice for those who do not have one.


Part 9: …That Doesnt Look Like a Painting
Not always a canvas framed and hung on a wall, painting has now begun to flirt with other art forms and formats. But how are we expected to look at it when it no longer looks like a painting?


Part 10: …In a Museum
Visiting art galleries and museums can be overwhelming. Paton considers the challenge of trying to find that intimate moment with a painting in a public space-and why, with great art, there is always more to see.


Part 11: …And Start a Collection
Enter a world within a world-the world of the art dealer and the people who buy expensive paintings, where the thrill is always to find new pieces but it's always okay to say, "I'm just looking."


Part 12: …On Your Own
In our busy, fast-paced lives, why should we take time for paintings? Paton thinks of galleries as time machines where we slow down to look and where paintings look back, speaking to us across time and forcing us to take stock of our lives.

General
Complete name : How.to.Look.at.a.Painting.Series.1.01of12…And.Discover.a.New.World.mp4
Format : MPEG-4
Format profile : Base Media
Codec ID : isom (isom)
File size : 770 MiB
Duration : 22 min 49 s
Overall bit rate mode : Variable
Overall bit rate : 4 719 kb/s
Encoded date : UTC 2019-06-20 10:00:05
Tagged date : UTC 2019-06-20 10:00:05

Video
ID : 1
Format : AVC
Format/Info : Advanced Video Codec
Format profile : High@L4.1
Format settings, CABAC : No
Format settings, ReFrames : 1 frame
Format settings, GOP : M=1, N=12
Codec ID : avc1
Codec ID/Info : Advanced Video Coding
Duration : 22 min 49 s
Bit rate : 4 556 kb/s
Maximum bit rate : 31.4 Mb/s
Width : 1 920 pixels
Height : 1 080 pixels
Display aspect ratio : 16:9
Frame rate mode : Constant
Frame rate : 29.970 (30000/1001) FPS
Color space : YUV
Chroma subsampling : 4:2:0
Bit depth : 8 bits
Scan type : Progressive
Bits/(Pixel*Frame) : 0.073
Stream size : 744 MiB (97%)
Title : How.to.Look.at.a.Painting.Series.1.01of12…And.Discover.a.New.World.1080p.HDTV.x264.AAC..org.mp4
Encoded date : UTC 2019-06-19 18:23:47
Tagged date : UTC 2019-06-20 10:00:39

Audio
ID : 2
Format : AAC
Format/Info : Advanced Audio Codec
Format profile : LC
Codec ID : 40
Duration : 22 min 49 s
Bit rate mode : Variable
Bit rate : 160 kb/s
Maximum bit rate : 233 kb/s
Channel(s) : 2 channels
Channel positions : Front: L R
Sampling rate : 48.0 kHz
Frame rate : 46.875 FPS (1024 spf)
Compression mode : Lossy
Stream size : 26.1 MiB (3%)
Title : How.to.Look.at.a.Painting.Series.1.01of12…And.Discover.a.New.World.1080p.HDTV.x264.AAC..org.mp4
Language : English
Encoded date : UTC 2019-06-20 10:00:36
Tagged date : UTC 2019-06-20 10:00:39

Text
ID : 3
Format : Timed Text
Codec ID : tx3g
Duration : 22 min 14 s
Bit rate mode : Variable
Bit rate : 114 b/s
Stream size : 18.6 KiB (0%)
Title : How.to.Look.at.a.Painting.Series.1.01of12…And.Discover.a.New.World.1080p.HDTV.x264.AAC..org.srt
Forced : No
Encoded date : UTC 2019-06-20 10:00:39
Tagged date : UTC 2019-06-20 10:00:39
Screenshots

TVF - How to Look at a Painting: Series 1 (2011)

TVF - How to Look at a Painting: Series 1 (2011)

Welcome to my blog - daily update!

TVF - How to Look at a Painting: Series 1 (2011)