Tags
Language
Tags
June 2024
Su Mo Tu We Th Fr Sa
26 27 28 29 30 31 1
2 3 4 5 6 7 8
9 10 11 12 13 14 15
16 17 18 19 20 21 22
23 24 25 26 27 28 29
30 1 2 3 4 5 6

How to Be a Latin Lover (2017)

Posted By: Without
How to Be a Latin Lover (2017)

How to Be a Latin Lover (2017)
BDRip | MKV | 720x300 | AVC@881 kb/s | English AAC@110 kb/s
Subs: English | 2 channels | 1 h 55 min | 821 MB
BRRip | AVI | 720x302 | XviD@1595 kb/s | English AC3@448 kb/s | 6 channels | 1 h 55 min | 1.65 GB
BDRip 720p | MKV | 1280x536 | AVC@5254 kb/s | English DTS@1509 kb/s
Subs: English | 6 channels | 1 h 55 min | 5.45 GB
Genre: Comedy

Finding himself dumped after 25 years of marriage, a man who made a career of seducing rich older women must move in with his estranged sister, where he begins to learn the value of family.



General
How.to.Be.a.Latin.Lover.2017.BDRip.x264-DRONES\How.to.Be.a.Latin.Lover.2017.BDRip.x264-DRONES.mkv
Format : Matroska
Format version : Version 4 / Version 2
File size : 822 MiB
Duration : 1 h 55 min
Overall bit rate : 994 kb/s
Encoded date : UTC 2017-08-03 02:24:57
Writing application : mkvmerge v8.3.0 ('Over the Horizon') 64bit
Writing library : libebml v1.3.1 + libmatroska v1.4.2

Video
ID : 1
Format : AVC
Format/Info : Advanced Video Codec
Format profile : High@L3.1
Format settings, CABAC : Yes
Format settings, ReFrames : 5 frames
Codec ID : V_MPEG4/ISO/AVC
Duration : 1 h 55 min
Bit rate : 881 kb/s
Width : 720 pixels
Height : 300 pixels
Display aspect ratio : 2.40:1
Frame rate mode : Constant
Frame rate : 23.976 FPS
Color space : YUV
Chroma subsampling : 4:2:0
Bit depth : 8 bits
Scan type : Progressive
Bits/(Pixel*Frame) : 0.170
Stream size : 729 MiB (89%)
Title : X264
Writing library : x264 core 150 r2833 df79067
Encoding settings : cabac=1 / ref=5 / deblock=1:-2:-2 / analyse=0x3:0x113 / me=hex / subme=8 / psy=1 / psy_rd=0.90:0.00 / mixed_ref=1 / me_range=16 / chroma_me=1 / trellis=2 / 8x8dct=1 / cqm=0 / deadzone=21,11 / fast_pskip=1 / chroma_qp_offset=-2 / threads=9 / lookahead_threads=1 / sliced_threads=0 / nr=0 / decimate=1 / interlaced=0 / bluray_compat=0 / constrained_intra=0 / bframes=3 / b_pyramid=2 / b_adapt=1 / b_bias=0 / direct=3 / weightb=1 / open_gop=0 / weightp=2 / keyint=250 / keyint_min=23 / scenecut=40 / intra_refresh=0 / rc_lookahead=50 / rc=crf / mbtree=1 / crf=19.0 / qcomp=0.60 / qpmin=0 / qpmax=69 / qpstep=4 / ip_ratio=1.40 / aq=1:1.00
Language : English
Default : Yes
Forced : No
Color range : Limited
Matrix coefficients : BT.709

Audio
ID : 2
Format : AAC
Format/Info : Advanced Audio Codec
Format profile : LC
Codec ID : A_AAC
Duration : 1 h 55 min
Bit rate : 110 kb/s
Channel(s) : 2 channels
Channel positions : Front: L R
Sampling rate : 48.0 kHz
Frame rate : 46.875 FPS (1024 spf)
Compression mode : Lossy
Stream size : 91.1 MiB (11%)
Language : English
Default : Yes
Forced : No

Text
ID : 3
Format : UTF-8
Codec ID : S_TEXT/UTF8
Codec ID/Info : UTF-8 Plain Text
Duration : 1 h 47 min
Bit rate : 9 b/s
Count of elements : 270
Stream size : 7.68 KiB (0%)
Title : English-Forced
Language : English
Default : Yes
Forced : Yes

Menu
00:00:00.000 : en:00:00:00.000
00:05:06.848 : en:00:05:06.848
00:13:39.318 : en:00:13:39.318
00:22:03.280 : en:00:22:03.280
00:29:32.437 : en:00:29:32.437
00:34:26.815 : en:00:34:26.815
00:40:39.187 : en:00:40:39.187
00:46:52.893 : en:00:46:52.893
00:53:28.705 : en:00:53:28.705
00:59:35.113 : en:00:59:35.113
01:06:40.288 : en:01:06:40.288
01:17:52.376 : en:01:17:52.376
01:27:52.100 : en:01:27:52.100
01:33:25.016 : en:01:33:25.016
01:38:34.200 : en:01:38:34.200
01:43:46.345 : en:01:43:46.345

General
How.to.Be.a.Latin.Lover.2017.BRRip.XviD.AC3-RARBG\How.to.Be.a.Latin.Lover.2017.BRRip.XviD.AC3-RARBG.avi
Format : AVI
Format/Info : Audio Video Interleave
File size : 1.66 GiB
Duration : 1 h 55 min
Overall bit rate : 2 053 kb/s
Writing application : Lavf57.71.100
Writing library : VirtualDub build 35491/release

Video
ID : 0
Format : MPEG-4 Visual
Format profile : Simple@L5
Format settings, BVOP : No
Format settings, QPel : No
Format settings, GMC : No warppoints
Format settings, Matrix : Default (H.263)
Codec ID : XVID
Codec ID/Hint : XviD
Duration : 1 h 55 min
Bit rate : 1 595 kb/s
Width : 720 pixels
Height : 302 pixels
Display aspect ratio : 2.40:1
Frame rate : 23.976 (24000/1001) FPS
Color space : YUV
Chroma subsampling : 4:2:0
Bit depth : 8 bits
Scan type : Progressive
Compression mode : Lossy
Bits/(Pixel*Frame) : 0.306
Stream size : 1.29 GiB (78%)
Writing library : Lavc57.89.100

Audio
ID : 1
Format : AC-3
Format/Info : Audio Coding 3
Mode extension : CM (complete main)
Format settings, Endianness : Big
Codec ID : 2000
Duration : 1 h 55 min
Bit rate mode : Constant
Bit rate : 448 kb/s
Channel(s) : 6 channels
Channel positions : Front: L C R, Side: L R, LFE
Sampling rate : 48.0 kHz
Frame rate : 31.250 FPS (1536 spf)
Bit depth : 16 bits
Compression mode : Lossy
Stream size : 371 MiB (22%)
Alignment : Aligned on interleaves
Interleave, duration : 42 ms (1.00 video frame)
Interleave, preload duration : 512 ms

General
How.to.Be.a.Latin.Lover.2017.720p.BluRay.x264-DRONES\How.to.Be.a.Latin.Lover.2017.720p.BluRay.x264-DRONES.mkv
Format : Matroska
Format version : Version 4 / Version 2
File size : 5.45 GiB
Duration : 1 h 55 min
Overall bit rate : 6 751 kb/s
Encoded date : UTC 2017-08-03 01:49:28
Writing application : mkvmerge v8.3.0 ('Over the Horizon') 64bit
Writing library : libebml v1.3.1 + libmatroska v1.4.2

Video
ID : 1
Format : AVC
Format/Info : Advanced Video Codec
Format profile : High@L4.1
Format settings, CABAC : Yes
Format settings, ReFrames : 5 frames
Codec ID : V_MPEG4/ISO/AVC
Duration : 1 h 55 min
Bit rate : 5 254 kb/s
Width : 1 280 pixels
Height : 536 pixels
Display aspect ratio : 2.40:1
Frame rate mode : Constant
Frame rate : 23.976 FPS
Color space : YUV
Chroma subsampling : 4:2:0
Bit depth : 8 bits
Scan type : Progressive
Bits/(Pixel*Frame) : 0.319
Stream size : 4.23 GiB (78%)
Writing library : x264 core 150 r2833 df79067
Encoding settings : cabac=1 / ref=5 / deblock=1:0:0 / analyse=0x3:0x133 / me=umh / subme=7 / psy=1 / psy_rd=1.00:0.00 / mixed_ref=1 / me_range=16 / chroma_me=1 / trellis=1 / 8x8dct=1 / cqm=0 / deadzone=21,11 / fast_pskip=0 / chroma_qp_offset=-2 / threads=17 / lookahead_threads=2 / sliced_threads=0 / nr=0 / decimate=1 / interlaced=0 / bluray_compat=0 / constrained_intra=0 / bframes=3 / b_pyramid=2 / b_adapt=1 / b_bias=0 / direct=1 / weightb=1 / open_gop=0 / weightp=2 / keyint=250 / keyint_min=23 / scenecut=40 / intra_refresh=0 / rc_lookahead=40 / rc=2pass / mbtree=1 / bitrate=5254 / ratetol=1.0 / qcomp=0.60 / qpmin=0 / qpmax=69 / qpstep=4 / cplxblur=20.0 / qblur=0.5 / ip_ratio=1.40 / aq=1:1.00
Language : English
Default : Yes
Forced : No

Audio
ID : 2
Format : DTS
Format/Info : Digital Theater Systems
Mode : 16
Format settings, Endianness : Big
Codec ID : A_DTS
Duration : 1 h 55 min
Bit rate mode : Constant
Bit rate : 1 509 kb/s
Channel(s) : 6 channels
Channel positions : Front: L C R, Side: L R, LFE
Sampling rate : 48.0 kHz
Frame rate : 93.750 FPS (512 spf)
Bit depth : 24 bits
Compression mode : Lossy
Stream size : 1.22 GiB (22%)
Language : English
Default : Yes
Forced : No

Text
ID : 3
Format : UTF-8
Codec ID : S_TEXT/UTF8
Codec ID/Info : UTF-8 Plain Text
Duration : 1 h 47 min
Bit rate : 9 b/s
Count of elements : 270
Stream size : 7.68 KiB (0%)
Title : English-Forced
Language : English
Default : Yes
Forced : Yes

Menu
00:00:00.000 : en:00:00:00.000
00:05:06.848 : en:00:05:06.848
00:13:39.318 : en:00:13:39.318
00:22:03.280 : en:00:22:03.280
00:29:32.437 : en:00:29:32.437
00:34:26.815 : en:00:34:26.815
00:40:39.187 : en:00:40:39.187
00:46:52.893 : en:00:46:52.893
00:53:28.705 : en:00:53:28.705
00:59:35.113 : en:00:59:35.113
01:06:40.288 : en:01:06:40.288
01:17:52.376 : en:01:17:52.376
01:27:52.100 : en:01:27:52.100
01:33:25.016 : en:01:33:25.016
01:38:34.200 : en:01:38:34.200
01:43:46.345 : en:01:43:46.345


BDRip Screenshots

How to Be a Latin Lover (2017)

How to Be a Latin Lover (2017)

How to Be a Latin Lover (2017)


BRRip Screenshots

How to Be a Latin Lover (2017)

How to Be a Latin Lover (2017)

How to Be a Latin Lover (2017)


BDRip 720p Screenshots

How to Be a Latin Lover (2017)

How to Be a Latin Lover (2017)

How to Be a Latin Lover (2017)


Come Visit My Blog (•‿•)