I Am a Hero (2015)

Posted By: Tavaz
I Am a Hero (2015)

I Am a Hero (2015)
BDRip | AVI | 720x304 | German | mpeg4 @ 2033 kbps | AC3 5.1 @ 448 | 2:06:31 | 1.84 GB
Genre: Action, Horror

Der 35-jährige Manga-Künstler Hideo Suzuki (Yo Oizumi) ist alles andere als ein Gewinner, schließlich wird er in seinem Job schlecht bezahlt und auch die Beziehung zu seiner Freundin läuft alles andere als gut. Doch dann beobachtet er eines Tages auf dem Heimweg, wie eine Frau von einem Auto überfahren wird und schon kurze Zeit später trotz eines gebrochenen Genicks wieder aufsteht und weiterläuft. Zuerst ist sich Hideo nicht ganz sicher, ob er seine Augen trauen kann, schließlich leidet er unter Wahnvorstellungen. Doch zu Hause muss er dann feststellen, dass sich auch seine Freundin in einen Zombie verwandelt hat und schon bald muss Hideo aus Tokio verschwinden, da die japanische Hauptstadt von einer regelrechten Zombie-Apokalypse ereilt wird. Zusammen mit der Schülerin Hiromi (Kasumi Arimura) und Krankenschwester Yabu (Masami Nagasawa) macht er sich auf den Weg zum Berg Fuji, wo man vor den Untoten in Sicherheit sein soll…


General
Complete name : ./I.Am.a.Hero.2015.German.AC3.BDRiP.XviD-SHOWE.avi
Format : AVI
Format/Info : Audio Video Interleave
File size : 1.84 GiB
Duration : 2 h 6 min
Overall bit rate : 2 082 kb/s

Video
ID : 0
Format : MPEG-4 Visual
Format profile : Advanced Simple@L5
Format settings : BVOP2
Format settings, BVOP : 2
Format settings, QPel : No
Format settings, GMC : No warppoints
Format settings, Matrix : Default (H.263)
Codec ID : XVID
Codec ID/Hint : XviD
Duration : 2 h 6 min
Bit rate : 1 626 kb/s
Width : 720 pixels
Height : 304 pixels
Display aspect ratio : 2.35:1
Frame rate : 23.976 (24000/1001) FPS
Color space : YUV
Chroma subsampling : 4:2:0
Bit depth : 8 bits
Scan type : Progressive
Compression mode : Lossy
Bits/(Pixel*Frame) : 0.310
Stream size : 1.44 GiB (78%)
Writing library : XviD 1.2.1 (UTC 2008-12-04)

Audio
ID : 1
Format : AC-3
Format/Info : Audio Coding 3
Format settings, Endianness : Big
Codec ID : 2000
Duration : 2 h 6 min
Bit rate mode : Constant
Bit rate : 448 kb/s
Channel(s) : 6 channels
Channel positions : Front: L C R, Side: L R, LFE
Sampling rate : 48.0 kHz
Frame rate : 31.250 FPS (1536 SPF)
Bit depth : 16 bits
Compression mode : Lossy
Stream size : 405 MiB (22%)
Alignment : Aligned on interleaves
Interleave, duration : 64 ms (1.53 video frames)
Interleave, preload duration : 192 ms
Title : I.Am.a.Hero_F1_T3_Audio - German
Service kind : Complete Main





I Am a Hero (2015)


I Am a Hero (2015)


I Am a Hero (2015)


I Am a Hero (2015)