Tags
Language
Tags

I Can Do Bad All By Myself (2009)

Posted By: Tavaz
1080p (FullHD) / BDRip IMDb
I Can Do Bad All By Myself (2009)

I Can Do Bad All By Myself (2009)
BDRip | MOV | 1920x1080 | H264 @ 3348 kbps | AC-3 @ 448 kbps | 1 h 53 min | 3.01 GiB
Genre: Drama, Comedy

When Madea catches sixteen-year-old Jennifer and her two younger brothers looting her home, she decides to take matters into her own hands and delivers the young delinquents to the only relative they have: their aunt April. A heavy-drinking nightclub singer who lives off of Raymond, her married boyfriend, April wants nothing to do with the kids.

981aa9c32b654e2a8dc9f75af532b292.mp4 (3.0 GB)



General
Complete name : ./981aa9c32b654e2a8dc9f75af532b292.mp4
Format : MPEG-4
Format profile : Base Media / Version 2
Codec ID : mp42 (mp42/isom/avc1)
File size : 3.01 GiB
Duration : 1 h 53 min
Overall bit rate mode : Variable
Overall bit rate : 3 799 kb/s
Movie name : I.Can.Do.Bad.All.By.Myself.2009.1080p.BluRay.H264.AC3.DD5.1
Encoded date : UTC 2020-06-27 20:40:45
Tagged date : UTC 2020-06-27 20:52:19
Writing application : DVDFab 11.0.4.2
Cover : Yes

Video
ID : 1
Format : AVC
Format/Info : Advanced Video Codec
Format profile : Main@L4
Format settings : CABAC / 2 Ref Frames
Format settings, CABAC : Yes
Format settings, RefFrames : 2 frames
Format settings, GOP : M=1, N=24
Codec ID : avc1
Codec ID/Info : Advanced Video Coding
Duration : 1 h 53 min
Bit rate mode : Variable
Bit rate : 3 349 kb/s
Maximum bit rate : 5 116 kb/s
Width : 1 920 pixels
Height : 1 080 pixels
Display aspect ratio : 16:9
Frame rate mode : Constant
Frame rate : 23.976 (24000/1001) FPS
Color space : YUV
Chroma subsampling : 4:2:0
Bit depth : 8 bits
Scan type : Progressive
Bits/(Pixel*Frame) : 0.067
Stream size : 2.65 GiB (88%)
Encoded date : UTC 2020-06-27 20:40:45
Tagged date : UTC 2020-06-27 20:52:19
Color primaries : BT.709
Transfer characteristics : BT.709
Matrix coefficients : BT.709

Audio
ID : 2
Format : AC-3
Format/Info : Audio Coding 3
Format settings, Endianness : Big
Codec ID : ac-3
Duration : 1 h 53 min
Bit rate mode : Constant
Bit rate : 448 kb/s
Channel(s) : 6 channels
Channel positions : Front: L C R, Side: L R, LFE
Sampling rate : 48.0 kHz
Frame rate : 31.250 FPS (1536 SPF)
Bit depth : 16 bits
Compression mode : Lossy
Stream size : 364 MiB (12%)
Title : Undetermined (ac3 5.1)
Service kind : Complete Main
Default : Yes
Alternate group : 1
Encoded date : UTC 2020-06-27 20:40:45
Tagged date : UTC 2020-06-27 20:52:19





I Can Do Bad All By Myself (2009)


I Can Do Bad All By Myself (2009)


I Can Do Bad All By Myself (2009)


I Can Do Bad All By Myself (2009)


I Can Do Bad All By Myself (2009)