I Hope They Serve Beer in Hell (2009)

Posted By: Tavaz
SD / DVDRip IMDb
I Hope They Serve Beer in Hell (2009)

I Hope They Serve Beer in Hell (2009)
DVDRip | AVI | 640x272 | MP4V-ES @ 782 kbps | MPEG Audio @ 131 kbps | 1 h 45 min | 700 MiB
Genre: Comedy

A guy tries to patch things up with his soon-to-be-married pal after botching things up at his bachelor party.

i.hope.they.serve.beer.in.hell.2009.limited.dvdrip.xvid-amiable.sub (8.5 MB)
i.hope.they.serve.beer.in.hell.2009.limited.dvdrip.xvid-amiable.idx (143.1 KB)
i.hope.they.serve.beer.in.hell.2009.limited.dvdrip.xvid-amiable.avi (700.1 MB)



General
Complete name : ./i.hope.they.serve.beer.in.hell.2009.limited.dvdrip.xvid-amiable.avi
Format : AVI
Format/Info : Audio Video Interleave
File size : 700 MiB
Duration : 1 h 45 min
Overall bit rate mode : Variable
Overall bit rate : 926 kb/s
Writing application : Nandub v1.0rc2
Writing library : Nandub build 1853/release

Video
ID : 0
Format : MPEG-4 Visual
Format profile : Advanced Simple@L5
Format settings : BVOP2
Format settings, BVOP : 2
Format settings, QPel : No
Format settings, GMC : No warppoints
Format settings, Matrix : Default (H.263)
Muxing mode : Packed bitstream
Codec ID : XVID
Codec ID/Hint : XviD
Duration : 1 h 45 min
Bit rate : 782 kb/s
Width : 640 pixels
Height : 272 pixels
Display aspect ratio : 2.35:1
Frame rate : 23.976 (24000/1001) FPS
Color space : YUV
Chroma subsampling : 4:2:0
Bit depth : 8 bits
Scan type : Progressive
Compression mode : Lossy
Bits/(Pixel*Frame) : 0.187
Stream size : 591 MiB (84%)
Writing library : XviD 1.3.0.dev55

Audio
ID : 1
Format : MPEG Audio
Format version : Version 1
Format profile : Layer 3
Format settings : Joint stereo / MS Stereo
Mode : Joint stereo
Mode extension : MS Stereo
Codec ID : 55
Codec ID/Hint : MP3
Duration : 1 h 45 min
Bit rate mode : Variable
Bit rate : 131 kb/s
Channel(s) : 2 channels
Sampling rate : 48.0 kHz
Compression mode : Lossy
Stream size : 99.3 MiB (14%)
Alignment : Aligned on interleaves
Interleave, duration : 24 ms (0.58 video frame)
Interleave, preload duration : 116 ms





I Hope They Serve Beer in Hell (2009)


I Hope They Serve Beer in Hell (2009)


I Hope They Serve Beer in Hell (2009)


I Hope They Serve Beer in Hell (2009)


I Hope They Serve Beer in Hell (2009)