Tags
Language
Tags

BBC - I Am A Men's Rights Activist (2020)

Posted By: notbanned
720p (HD) / HDTV
BBC - I Am A Men's Rights Activist (2020)

BBC - I Am A Men's Rights Activist (2020)
HDTV | 1280x720 | .MKV/AVC @ 4929 Kbps | 24 min 17 s | 880 MiB
Audio: English AAC 128 kbps, 2 channels | Subs: None
Genre: Documentary

“I think as a men’s rights activist you are constantly being silenced”. Philipp Tanzer is a former gay porn actor who now works as a hairdresser, artist and gallery owner in the Scottish Highlands. He has been involved in the men’s rights movement for over 2 years, first attending the International Conference on Men’s Issues in London in 2018. It’s a summit where men and women who believe men are at a disadvantage in modern society convene to share their thoughts and a common ground.

Intrigued by the concept and the issues surrounding it, BBC journalist Alvaro Alvarez travelled with Philipp to the same Conference, this time in Chicago in August of last year, in an attempt to get under the skin of this movement and ultimately Philipp’s investment and fascination with it.

For Alvaro, confronted with a confusing setting where amongst other things domestic violence towards women is being downplayed by university professors; conversely Philipp is openly captivated, yet it soon emerges there is more to his own back story than meets the eye.

As part of his journey Philipp also meets with Graham Goulden, a retired police officer and Chief Investigator with over 30-years’ experience, who now works as a violence prevention trainer. Having had numerous heated exchanges on social media, Philipp and Graham agree to meet in person to talk through their alternate stances when it comes to men’s rights and their role in society.

We also hear from Tracie Farrell, a Research Associate with the Knowledge Media Institute, part of the Open University, who through her work has been delving into what has become known as the ‘manosphere’, a platform evolving within society where it is becoming easier to have a misogynistic opinion and vocalise it.

It goes against most logical thinking, but are we really starting to ‘flip the narrative’ so that women hold the power and men are subjugated by it?

Are we as a society designed to ignore men’s vulnerability? Has feminism gone too far?

General
Unique ID : 228637586933721759392517685376464308457 (0xAC01FF5CBCC214DAB4AD7C6F4011C8E9)
Complete name : I.Am.A.Mens.Rights.Activist.2020.INTERNAL.720p.mkv
Format : Matroska
Format version : Version 4 / Version 2
File size : 880 MiB
Duration : 24 min 17 s
Overall bit rate : 5 061 kb/s

Video
ID : 1
Format : AVC
Format/Info : Advanced Video Codec
Format profile : High@L3.2
Format settings, CABAC : Yes
Format settings, ReFrames : 4 frames
Format settings, GOP : M=1, N=24
Codec ID : V_MPEG4/ISO/AVC
Duration : 24 min 17 s
Bit rate : 4 929 kb/s
Width : 1 280 pixels
Height : 720 pixels
Display aspect ratio : 16:9
Frame rate mode : Constant
Frame rate : 50.000 FPS
Color space : YUV
Chroma subsampling : 4:2:0
Bit depth : 8 bits
Scan type : Progressive
Bits/(Pixel*Frame) : 0.107
Stream size : 857 MiB (97%)
Language : English
Default : Yes
Forced : No
Color range : Limited
Color primaries : BT.709
Transfer characteristics : BT.709
Matrix coefficients : BT.709

Audio
ID : 2
Format : AAC
Format/Info : Advanced Audio Codec
Format profile : LC
Codec ID : A_AAC
Duration : 24 min 17 s
Bit rate : 128 kb/s
Channel(s) : 2 channels
Channel positions : Front: L R
Sampling rate : 48.0 kHz
Frame rate : 46.875 FPS (1024 spf)
Compression mode : Lossy
Stream size : 22.2 MiB (3%)
Title : English
Language : English
Default : Yes
Forced : No


Screenshots:

BBC - I Am A Men's Rights Activist (2020)

BBC - I Am A Men's Rights Activist (2020)

BBC - I Am A Men's Rights Activist (2020)

BBC - I Am A Men's Rights Activist (2020)