I Do... Until I Don't (2017)

Posted By: JohnSmith
I Do... Until I Don't (2017)

I Do… Until I Don't (2017)
HDRip | MKV / AVC@1564 kb/s | 720x304 | 1h 47mn | 1.46 GB | English: AC3, 384 kb/s (6 ch)
WEB-DL 720p | MKV / AVC@4066 kb/s | 1280x532 | 1h 47mn | 3.33 GB | English: AC3, 384 kb/s (6 ch)
WEB-DL 1080p | MKV / AVC@4570 kb/s | 1916x796 | 1h 47mn | 3.71 GB | English: AC3, 384 kb/s (6 ch)
Genre: Comedy

What's the Point? is a comedy investigating the concept that marriage should be a seven-year contract with an option to renew. The story is told through the lens of a pretentious documentarian and follows three couples at various stages in their relationships.




General
Unique ID : 253693131822496188335514170853122063201 (0xBEDB8519E2B4652F9B7399CBD78F3B61)
Complete name : A:\I.Do.Until.I.Dont.2017.HDRip.mkv
Format : Matroska
Format version : Version 4 / Version 2
File size : 1.46 GiB
Duration : 1 h 47 min
Overall bit rate : 1 950 kb/s
Movie name : I Do…Until I Don't
Encoded date : UTC 2017-11-14 10:43:52
Writing application : mkvmerge v8.3.0 ('Over the Horizon') 64bit
Writing library : libebml v1.3.1 + libmatroska v1.4.2

Video
ID : 1
Format : AVC
Format/Info : Advanced Video Codec
Format profile : Baseline@L3.1
Format settings, CABAC : No
Format settings, ReFrames : 1 frame
Codec ID : V_MPEG4/ISO/AVC
Duration : 1 h 47 min
Bit rate : 1 564 kb/s
Width : 720 pixels
Height : 304 pixels
Display aspect ratio : 2.35:1
Frame rate mode : Constant
Frame rate : 23.976 (24000/1001) FPS
Color space : YUV
Chroma subsampling : 4:2:0
Bit depth : 8 bits
Scan type : Progressive
Bits/(Pixel*Frame) : 0.298
Stream size : 1.17 GiB (80%)
Writing library : x264 core 148 r2708 86b7198
Encoding settings : cabac=0 / ref=1 / deblock=1:0:0 / analyse=0x1:0x111 / me=hex / subme=2 / psy=1 / psy_rd=1.00:0.00 / mixed_ref=0 / me_range=16 / chroma_me=1 / trellis=0 / 8x8dct=0 / cqm=0 / deadzone=21,11 / fast_pskip=1 / chroma_qp_offset=0 / threads=9 / lookahead_threads=2 / sliced_threads=0 / nr=0 / decimate=1 / interlaced=0 / bluray_compat=0 / constrained_intra=0 / bframes=0 / weightp=0 / keyint=240 / keyint_min=24 / scenecut=40 / intra_refresh=0 / rc_lookahead=10 / rc=2pass / mbtree=1 / bitrate=1564 / ratetol=1.0 / qcomp=0.60 / qpmin=0 / qpmax=69 / qpstep=4 / cplxblur=20.0 / qblur=0.5 / vbv_maxrate=14000 / vbv_bufsize=14000 / nal_hrd=none / filler=0 / ip_ratio=1.40 / aq=1:1.00
Default : Yes
Forced : No
Color range : Limited
Color primaries : BT.709
Transfer characteristics : BT.709
Matrix coefficients : BT.709

Audio
ID : 2
Format : AC-3
Format/Info : Audio Coding 3
Format settings, Endianness : Big
Codec ID : A_AC3
Duration : 1 h 47 min
Bit rate mode : Constant
Bit rate : 384 kb/s
Channel(s) : 6 channels
Channel positions : Front: L C R, Side: L R, LFE
Sampling rate : 48.0 kHz
Frame rate : 31.250 FPS (1536 spf)
Bit depth : 16 bits
Compression mode : Lossy
Stream size : 294 MiB (20%)
Title : Surround
Language : English
Service kind : Complete Main
Default : Yes
Forced : No





General
Unique ID : 195455391934462020204946489664209832021 (0x930B56D696846611A0B9D1C140FE4855)
Complete name : A:\I.Do.Until.I.Dont.2017.720p.WEB-DL.mkv
Format : Matroska
Format version : Version 4 / Version 2
File size : 3.33 GiB
Duration : 1 h 47 min
Overall bit rate : 4 452 kb/s
Encoded date : UTC 2017-11-14 10:38:44
Writing application : mkvmerge v8.3.0 ('Over the Horizon') 64bit
Writing library : libebml v1.3.1 + libmatroska v1.4.2

Video
ID : 1
Format : AVC
Format/Info : Advanced Video Codec
Format profile : Main@L3.1
Format settings, CABAC : No
Format settings, ReFrames : 2 frames
Codec ID : V_MPEG4/ISO/AVC
Duration : 1 h 47 min
Bit rate : 4 066 kb/s
Width : 1 280 pixels
Height : 532 pixels
Display aspect ratio : 2.40:1
Frame rate mode : Constant
Frame rate : 23.976 (23976/1000) FPS
Color space : YUV
Chroma subsampling : 4:2:0
Bit depth : 8 bits
Scan type : Progressive
Bits/(Pixel*Frame) : 0.249
Stream size : 3.04 GiB (91%)
Language : English
Default : Yes
Forced : No
Color range : Limited
Color primaries : BT.709
Transfer characteristics : BT.709
Matrix coefficients : BT.709

Audio
ID : 2
Format : AC-3
Format/Info : Audio Coding 3
Format settings, Endianness : Big
Codec ID : A_AC3
Duration : 1 h 47 min
Bit rate mode : Constant
Bit rate : 384 kb/s
Channel(s) : 6 channels
Channel positions : Front: L C R, Side: L R, LFE
Sampling rate : 48.0 kHz
Frame rate : 31.250 FPS (1536 spf)
Bit depth : 16 bits
Compression mode : Lossy
Stream size : 294 MiB (9%)
Language : English
Service kind : Complete Main
Default : Yes
Forced : No

Menu
00:00:00.000 : en:1
00:04:32.772 : en:2
00:10:37.428 : en:3
00:17:39.725 : en:4
00:25:36.159 : en:5
00:31:42.358 : en:6
00:39:06.719 : en:7
00:45:48.245 : en:8
00:55:25.030 : en:9
01:09:11.773 : en:10
01:16:20.952 : en:11
01:21:56.412 : en:12
01:28:56.790 : en:13
01:32:53.026 : en:14
01:37:31.262 : en:15
01:40:56.216 : en:16





General
Unique ID : 195153678638805131152745475166292118734 (0x92D13B3969578A5CA0BA88380FF78CCE)
Complete name : A:\I.Do.Until.I.Dont.2017.1080p.WEB-DL.mkv
Format : Matroska
Format version : Version 4 / Version 2
File size : 3.71 GiB
Duration : 1 h 47 min
Overall bit rate : 4 957 kb/s
Encoded date : UTC 2017-11-14 10:38:09
Writing application : mkvmerge v8.3.0 ('Over the Horizon') 64bit
Writing library : libebml v1.3.1 + libmatroska v1.4.2

Video
ID : 1
Format : AVC
Format/Info : Advanced Video Codec
Format profile : High@L4
Format settings, CABAC : Yes
Format settings, ReFrames : 5 frames
Codec ID : V_MPEG4/ISO/AVC
Duration : 1 h 47 min
Bit rate : 4 571 kb/s
Width : 1 916 pixels
Height : 796 pixels
Display aspect ratio : 2.40:1
Frame rate mode : Constant
Frame rate : 23.976 (23976/1000) FPS
Color space : YUV
Chroma subsampling : 4:2:0
Bit depth : 8 bits
Scan type : Progressive
Bits/(Pixel*Frame) : 0.125
Stream size : 3.42 GiB (92%)
Language : English
Default : Yes
Forced : No
Color range : Limited
Color primaries : BT.709
Transfer characteristics : BT.709
Matrix coefficients : BT.709

Audio
ID : 2
Format : AC-3
Format/Info : Audio Coding 3
Format settings, Endianness : Big
Codec ID : A_AC3
Duration : 1 h 47 min
Bit rate mode : Constant
Bit rate : 384 kb/s
Channel(s) : 6 channels
Channel positions : Front: L C R, Side: L R, LFE
Sampling rate : 48.0 kHz
Frame rate : 31.250 FPS (1536 spf)
Bit depth : 16 bits
Compression mode : Lossy
Stream size : 294 MiB (8%)
Language : English
Service kind : Complete Main
Default : Yes
Forced : No

Menu
00:00:00.000 : en:1
00:04:32.772 : en:2
00:10:37.428 : en:3
00:17:39.725 : en:4
00:25:36.159 : en:5
00:31:42.358 : en:6
00:39:06.719 : en:7
00:45:48.245 : en:8
00:55:25.030 : en:9
01:09:11.773 : en:10
01:16:20.952 : en:11
01:21:56.412 : en:12
01:28:56.790 : en:13
01:32:53.026 : en:14
01:37:31.262 : en:15
01:40:56.216 : en:16




Screenshots HDRip

I Do... Until I Don't (2017)

I Do... Until I Don't (2017)

I Do... Until I Don't (2017)


Screenshots WEB-DL 720p

I Do... Until I Don't (2017)

I Do... Until I Don't (2017)

I Do... Until I Don't (2017)


Screenshots WEB-DL 1080p

I Do... Until I Don't (2017)

I Do... Until I Don't (2017)

I Do... Until I Don't (2017)