Tornado Alley (2011)

Posted By: JohnSmith
1080p (FullHD) / BDRip IMDb
Tornado Alley (2011)

Tornado Alley (2011)
BDRip 1080p | MKV / AVC@15.8 Mb/s | 1920x1080 | 43mn | 4.98 GB
English: AC3, 640 kb/s (6 ch) | Subtitles: English
Genre: Documentary | Short

A team of storm chasers track a tornado.




General
Unique ID : 210899738824191945875637292009293590422 (0x9EA9CFEE135CA579ABEBC30D068FAF96)
Complete name : D:\Downloads\IMAX.Tornado.Alley.2011.1080p.BluRay.x264-DON.mkv
Format : Matroska
Format version : Version 4 / Version 2
File size : 4.98 GiB
Duration : 43 min 26 s
Overall bit rate : 16.4 Mb/s
Movie name : IMAX - Tornado Alley (2011)
Encoded date : UTC 2018-01-25 19:19:46
Writing application : mkvmerge v7.9.0 ('Birds') 32bit
Writing library : libebml v1.3.1 + libmatroska v1.4.2

Video
ID : 1
Format : AVC
Format/Info : Advanced Video Codec
Format profile : High@L4.1
Format settings, CABAC : Yes
Format settings, ReFrames : 4 frames
Codec ID : V_MPEG4/ISO/AVC
Duration : 43 min 26 s
Bit rate : 15.8 Mb/s
Width : 1 920 pixels
Height : 1 080 pixels
Display aspect ratio : 16:9
Frame rate mode : Constant
Frame rate : 23.976 (24000/1001) FPS
Color space : YUV
Chroma subsampling : 4:2:0
Bit depth : 8 bits
Scan type : Progressive
Bits/(Pixel*Frame) : 0.317
Stream size : 4.79 GiB (96%)
Writing library : x264 core 152 r2851+58 429492e t_mod_Custom [8-bit@all X86_64]
Encoding settings : cabac=1 / ref=4 / deblock=1:-3:-3 / analyse=0x3:0x133 / me=umh / subme=10 / psy=1 / fade_compensate=0.00 / psy_rd=1.05:0.00 / mixed_ref=1 / me_range=32 / chroma_me=1 / trellis=2 / 8x8dct=1 / cqm=0 / deadzone=21,11 / fast_pskip=0 / chroma_qp_offset=-2 / threads=12 / lookahead_threads=2 / sliced_threads=0 / nr=0 / decimate=0 / interlaced=0 / bluray_compat=0 / constrained_intra=0 / fgo=0 / bframes=8 / b_pyramid=2 / b_adapt=2 / b_bias=0 / direct=3 / weightb=1 / open_gop=0 / weightp=2 / keyint=250 / keyint_min=23 / scenecut=40 / intra_refresh=0 / rc_lookahead=60 / rc=crf / mbtree=0 / crf=19.5000 / qcomp=0.60 / qpmin=0:0:0 / qpmax=69:69:69 / qpstep=4 / vbv_maxrate=62500 / vbv_bufsize=78125 / crf_max=0.0 / nal_hrd=none / filler=0 / ip_ratio=1.40 / pb_ratio=1.30 / aq=3:0.80 / aq-sensitivity=10.00 / aq-factor=1.00:1.00:1.00 / aq2=0 / aq3=0
Language : English
Default : Yes
Forced : No

Audio
ID : 2
Format : AC-3
Format/Info : Audio Coding 3
Format settings, Endianness : Big
Codec ID : A_AC3
Duration : 43 min 26 s
Bit rate mode : Constant
Bit rate : 640 kb/s
Channel(s) : 6 channels
Channel positions : Front: L C R, Side: L R, LFE
Sampling rate : 48.0 kHz
Frame rate : 31.250 FPS (1536 spf)
Bit depth : 16 bits
Compression mode : Lossy
Stream size : 199 MiB (4%)
Language : English
Service kind : Complete Main
Default : Yes
Forced : No

Text
ID : 3
Format : UTF-8
Codec ID : S_TEXT/UTF8
Codec ID/Info : UTF-8 Plain Text
Duration : 39 min 49 s
Bit rate : 56 b/s
Count of elements : 416
Stream size : 16.3 KiB (0%)
Language : English
Default : No
Forced : No

Menu
00:00:00.000 : en:00:00:00.000
00:02:36.406 : en:00:02:36.406
00:05:02.761 : en:00:05:02.761
00:07:40.543 : en:00:07:40.543
00:09:12.844 : en:00:09:12.844
00:12:09.479 : en:00:12:09.479
00:13:45.700 : en:00:13:45.700
00:16:09.260 : en:00:16:09.260
00:18:01.664 : en:00:18:01.664
00:20:21.178 : en:00:20:21.178
00:22:48.659 : en:00:22:48.659
00:26:01.643 : en:00:26:01.643
00:27:09.962 : en:00:27:09.962
00:28:59.696 : en:00:28:59.696
00:32:25.026 : en:00:32:25.026
00:35:40.805 : en:00:35:40.805
00:37:52.687 : en:00:37:52.687
00:40:41.356 : en:00:40:41.356




Screenshots

Tornado Alley (2011)

Tornado Alley (2011)

Tornado Alley (2011)