ITV On Assignment - France, Israel and Syria (2017)

Posted By: Tutorial
ITV On Assignment - France, Israel and Syria (2017)

ITV On Assignment - France, Israel and Syria (2017)
HDTV | 1280 x 720 | .MKV/AVC @ 2639 Kbps | 28 min 40 s | 555 MB
Audio: English AAC 64.0 Kbps, 2 channels | Subs: English
Genre: Documentary

Neil Connery visits the Champagne region of France to find out what the future holds for the country and its new president Emmanuel Macron, the youngest French head of state since Napoleon. Dan Rivers spends time on the set of a popular Middle Eastern drama made in Syria, to find out how the TV industry is alive and thriving despite the war. John Irvine travels to the Holy City of Jerusalem to see if restorations on the Church of the Holy Sepulchre have helped restore relations between the Christian denominations that run the Church.

General
Unique ID : 197275431150239241053705658671586713960 (0x9469DDB31EE58848B62CA143EFEDA168)
Complete name : ITV.On.Assignment.2017.France.Israel.and.Syria.mkv
Format : Matroska
Format version : Version 4 / Version 2
File size : 555 MiB
Duration : 28 min 40 s
Overall bit rate : 2 705 kb/s
Movie name : On Assignment: France, Israel and Syria
Encoded date : UTC 2017-06-15 00:58:06
Writing application : mkvmerge v12.0.0 ('Trust / Lust') 64bit
Writing library : libebml v1.3.4 + libmatroska v1.4.5

Video
ID : 1
Format : AVC
Format/Info : Advanced Video Codec
Format profile : High@L3.1
Format settings, CABAC : Yes
Format settings, ReFrames : 4 frames
Codec ID : V_MPEG4/ISO/AVC
Duration : 28 min 40 s
Bit rate : 2 639 kb/s
Width : 1 280 pixels
Height : 720 pixels
Display aspect ratio : 16:9
Frame rate mode : Constant
Frame rate : 25.000 FPS
Color space : YUV
Chroma subsampling : 4:2:0
Bit depth : 8 bits
Scan type : Progressive
Bits/(Pixel*Frame) : 0.115
Stream size : 541 MiB (98%)
Writing library : x264 core 150 r2833 MVGroup
Encoding settings : cabac=1 / ref=4 / deblock=1:0:0 / analyse=0x3:0x113 / me=umh / subme=9 / psy=1 / psy_rd=1.00:0.00 / mixed_ref=1 / me_range=24 / chroma_me=1 / trellis=1 / 8x8dct=1 / cqm=0 / deadzone=21,11 / fast_pskip=0 / chroma_qp_offset=-2 / threads=3 / lookahead_threads=1 / sliced_threads=0 / nr=0 / decimate=1 / interlaced=0 / bluray_compat=0 / constrained_intra=0 / bframes=5 / b_pyramid=2 / b_adapt=2 / b_bias=0 / direct=1 / weightb=1 / open_gop=0 / weightp=2 / keyint=250 / keyint_min=25 / scenecut=40 / intra_refresh=0 / rc_lookahead=40 / rc=crf / mbtree=1 / crf=20.0 / qcomp=0.60 / qpmin=0 / qpmax=69 / qpstep=4 / ip_ratio=1.40 / aq=1:1.00
Language : English
Default : Yes
Forced : No

Audio
ID : 2
Format : AAC
Format/Info : Advanced Audio Codec
Format profile : HE-AAC / LC
Codec ID : A_AAC
Duration : 28 min 39 s
Bit rate : 64.0 kb/s
Channel(s) : 2 channels
Channel positions : Front: L R
Sampling rate : 48.0 kHz / 24.0 kHz
Frame rate : 23.438 FPS (1024 spf)
Compression mode : Lossy
Delay relative to video : 31 ms
Stream size : 13.1 MiB (2%)
Language : English
Default : Yes
Forced : No

Text
ID : 3
Format : UTF-8
Codec ID : S_TEXT/UTF8
Codec ID/Info : UTF-8 Plain Text
Duration : 28 min 14 s
Bit rate : 124 b/s
Count of elements : 644
Stream size : 25.7 KiB (0%)
Language : English
Default : No
Forced : No
Screenshots

ITV On Assignment - France, Israel and Syria (2017)

ITV On Assignment - France, Israel and Syria (2017)

ITV On Assignment - France, Israel and Syria (2017)

Welcome to my blog - daily update!

ITV On Assignment - France, Israel and Syria (2017)