Subcategories

ITV - A Passage through India (2011)

Posted By: notbanned
ITV - A Passage through India (2011)

ITV - A Passage through India (2011)
HDTV | 1280x720 | .MKV/AVC @ 4000 Kbps | 3x~46min | 4.32 GiB
Audio: English AC3 192 kbps, 2 channels | Subs: None
Genre: Documentary

Caroline Quentin will take viewers on an epic journey through India for a brand new ITV1 series. Produced by Tiger Aspect, the 3x60 documentary Caroline Quentin: A Passage through India will provide a deeply personal insight into one of the world's most remarkable and diverse countries though the eyes of one of our best loved stars. Starting in the far north, and working her way over 3500 miles to its southernmost tip, Caroline's eye-opening adventure aims to discover the rich spectrum of modern Indian life as well as challenge preconceptions, including her own, of the subcontinent. And to do that Caroline will plunge headlong into Indian society at every level: from Maharajas to mahouts, staying with local families en route. Caroline will experience India's remarkable contrasts, from expansive, breathtaking landscapes such as Kanha National Park to dense, humid metropolises including Kolcutta and Mumbai, which encompass the extremes of wealth and often desperate poverty in close proximity. Taking in everything from ancient treasures to the high tech modernity of this self-styled 21st century Tiger state, the scale of her journey is immense. With Caroline at the helm the series will tell a human story as she connects with the lives of the ordinary Indians she meets along the way in order to explore what - in this country of incredible, often incongruous diversity - modern India really is and what its future holds.
Episode 1
The actress immerses herself in Indian life as she travels the sub-continent from north to south. She begins in the chaotic city of Varanasi, taking a boat ride on the River Ganges and attending an evening ceremony in which thousands of people light lamps and pray to the river. After catching a sleeper train to Jodhpur, Caroline gets the chance to see the Taj Mahal in Agra, before visiting an infertility clinic in the small Gujarat town of Anand, where couples from other countries hire Indian women to carry their children

Episode 2
The actress travels by camel to the 'Golden City' of Jaisalmer, Rajasthan, where she meets Princes Shakti and Vikram Singh and hears about the history of the fort in which many of the population still live. Caroline then returns to Gurjarat to attend an Indian festival at Ahmedabad, before ending the second leg of her journey in the cosmopolitan city of Mumbai. Here, she learns more about the stray dogs that roam the streets, receives fashion tips from a Bollywood actress and watches a display of gymnastics

Episode 3
The actress travels through Karnataka, Kerala and Tamil Nadu to the sub-continent's southern tip, visiting the 'City of Palaces' Mysore, where she receives a guided tour by a snake guru. Caroline ventures into the Malnad region to track down a healer who claims he can cure cancers, before helping to bathe elephants in the Keralan backwaters. Her journey ends with a dip in the holy waters of Kanyakumari, where the Bay of Bengal, the Indian Ocean and the Arabian Sea meet


General
Unique ID : 234204960772879841389800141246502159297 (0xB0323C15CCFC90AA94A0A4DE957A43C1)
Complete name : ITV.A.Passage.Through.India.1of3.HDTV.mkv
Format : Matroska
Format version : Version 2
File size : 1.44 GiB
Duration : 46mn 19s
Overall bit rate : 4 447 Kbps

Video
ID : 1
Format : AVC
Format/Info : Advanced Video Codec
Format profile : High@L4.1
Format settings, CABAC : Yes
Format settings, ReFrames : 4 frames
Codec ID : V_MPEG4/ISO/AVC
Duration : 46mn 19s
Bit rate : 4 000 Kbps
Width : 1 280 pixels
Height : 720 pixels
Display aspect ratio : 16:9
Frame rate mode : Constant
Frame rate : 25.000 fps
Color space : YUV
Chroma subsampling : 4:2:0
Bit depth : 8 bits
Scan type : Progressive
Bits/(Pixel*Frame) : 0.174
Stream size : 1.35 GiB (94%)
Writing library : x264 core 114 r1913 5fd3dce
Encoding settings : cabac=1 / ref=4 / deblock=1:0:0 / analyse=0x3:0x113 / me=umh / subme=9 / psy=1 / psy_rd=1.00:0.00 / mixed_ref=1 / me_range=24 / chroma_me=1 / trellis=1 / 8x8dct=1 / cqm=0 / deadzone=21,11 / fast_pskip=0 / chroma_qp_offset=-2 / threads=3 / sliced_threads=0 / nr=0 / decimate=1 / interlaced=0 / constrained_intra=0 / bframes=3 / b_pyramid=2 / b_adapt=1 / b_bias=0 / direct=1 / weightb=1 / open_gop=0 / weightp=2 / keyint=100 / keyint_min=25 / scenecut=40 / intra_refresh=0 / rc_lookahead=40 / rc=2pass / mbtree=1 / bitrate=4000 / ratetol=1.0 / qcomp=0.60 / qpmin=0 / qpmax=69 / qpstep=4 / cplxblur=20.0 / qblur=0.5 / ip_ratio=1.40 / aq=1:1.00
Language : English
Default : Yes
Forced : No

Audio
ID : 2
Format : AC-3
Format/Info : Audio Coding 3
Mode extension : CM (complete main)
Format settings, Endianness : Big
Codec ID : A_AC3
Duration : 46mn 19s
Bit rate mode : Constant
Bit rate : 192 Kbps
Channel(s) : 2 channels
Channel positions : Front: L R
Sampling rate : 48.0 KHz
Compression mode : Lossy
Delay relative to video : 31ms
Stream size : 63.6 MiB (4%)
Language : English
Default : Yes
Forced : No


Screenshots:

ITV - A Passage through India (2011)

ITV - A Passage through India (2011)

ITV - A Passage through India (2011)

ITV - A Passage through India (2011)