Tags
Language
Tags

ITV - Joanna Lumley's Unseen Adventures (2020)

Posted By: Tutorial
1080p (FullHD) / HDTV
ITV - Joanna Lumley's Unseen Adventures (2020)

ITV - Joanna Lumley's Unseen Adventures (2020)
HDTV | 1920 x 1080 | .MKV/HEVC @ 3167 Kbps | 3x~46mn | 3.39 GB
Audio: English AAC 128 Kbps, 2 channels | Subs: English
Genre: Documentary

Joanna Lumley shares her previously unseen travelling adventures. Joanna goes back as far east as Japan and all across the world to Cuba in the west, to share her treasure trove of unseen stories and give viewers an insight into how her travel programmes are made and why she loves to make them.

Featuring behind the scenes footage and outtakes, we join Joanna at home as she recalls some of her most memorable journeys and hidden gems from her travels. The series offers viewers the chance to escape back to some incredible countries and enjoy their breath-taking scenery, with the added joy of witnessing what really happened along the way - from translation struggles, to filming with an overzealous dog and the challenges of extreme weather conditions.

Part 1: Japan to Siberia
The trip begins on the frozen Japanese sea of Okhotsk, and goes across China and Mongolia before arriving at Lake Baikal in Siberia, where Joanna meets some amazing seals.


Part 2: India to Uzbekistan
Joanna travels the length of India, including footage of her encounters with the flower-sellers of Madurai, before taking?us back to Uzbekistan, where she reveals some gory tales of the country's history and discovers the secrets of gem-making.


Part 3: Iran to Cuba
Joanna's adventures in and around Iran, from where she followed the Silk Road through Azerbaijan and Georgia, finally moving on to Venice. Also presents behind the scenes footage from Joanna's travels in Haiti and Cuba.

Related Documentaries:
ITV - Joanna Lumley's Hidden Caribbean Havana to Haiti: Series1 (2020)
ITV -Joanna Lumley’s Trans-Siberian Adventure (2015)
ITV - Joanna Lumley's Postcards Series 1 (2017)
ITV - Greek Odyssey (2011)
ITV - Joanna Lumley's Japan (2016)
ITV - Joanna Lumley's India (2017)
ITV - Joanna Lumley's Nile (2010)

General
Unique ID : 270292687154773848275231307128662890233 (0xCB587A5DD109B4F41C9FA71E5D6396F9)
Complete name : ITV.Joanna.Lumleys.Unseen.Adventures.1of3.mkv
Format : Matroska
Format version : Version 4 / Version 2
File size : 1.07 GiB
Duration : 46 min 30 s
Overall bit rate : 3 300 kb/s
Movie name : Joanna Lumley's Unseen Adventures [MVGroup]
Encoded date : UTC 2020-08-13 11:33:32
Writing application : mkvmerge v49.0.0 ('Sick Of Losing Soulmates') 64-bit
Writing library : libebml v1.4.0 + libmatroska v1.6.1

Video
ID : 1
Format : HEVC
Format/Info : High Efficiency Video Coding
Format profile : Main@L4@Main
Codec ID : V_MPEGH/ISO/HEVC
Duration : 46 min 30 s
Bit rate : 3 167 kb/s
Width : 1 920 pixels
Height : 1 080 pixels
Display aspect ratio : 16:9
Frame rate mode : Constant
Frame rate : 25.000 FPS
Color space : YUV
Chroma subsampling : 4:2:0
Bit depth : 8 bits
Bits/(Pixel*Frame) : 0.061
Stream size : 1.03 GiB (96%)
Writing library : x265 3.4+14-gd419c7152:[Windows][MSVC 1926][64 bit] 8bit
Encoding settings : cpuid=1111039 / frame-threads=3 / numa-pools=12 / wpp / no-pmode / no-pme / no-psnr / no-ssim / log-level=2 / input-csp=1 / input-res=1920x1080 / interlace=0 / total-frames=69750 / level-idc=0 / high-tier=1 / uhd-bd=0 / ref=3 / no-allow-non-conformance / no-repeat-headers / annexb / no-aud / no-hrd / info / hash=0 / no-temporal-layers / no-open-gop / min-keyint=25 / keyint=250 / gop-lookahead=12 / bframes=6 / b-adapt=2 / b-pyramid / bframe-bias=0 / rc-lookahead=20 / lookahead-slices=6 / scenecut=40 / hist-scenecut=0 / radl=0 / no-splice / no-intra-refresh / ctu=64 / min-cu-size=8 / no-rect / no-amp / max-tu-size=32 / tu-inter-depth=1 / tu-intra-depth=1 / limit-tu=0 / rdoq-level=0 / dynamic-rd=0.00 / no-ssim-rd / signhide / no-tskip / nr-intra=0 / nr-inter=0 / no-constrained-intra / strong-intra-smoothing / max-merge=3 / limit-refs=1 / no-limit-modes / me=2 / subme=2 / merange=48 / temporal-mvp / no-frame-dup / hme / Level / merange / L0,L1,L2=16,32,48 / weightp / weightb / no-analyze-src-pics / deblock=0:0 / sao / no-sao-non-deblock / rd=3 / selective-sao=4 / early-skip / rskip / no-fast-intra / no-tskip-fast / no-cu-lossless / b-intra / no-splitrd-skip / rdpenalty=0 / psy-rd=2.00 / psy-rdoq=0.00 / no-rd-refine / no-lossless / cbqpoffs=0 / crqpoffs=0 / rc=crf / crf=20.0 / qcomp=0.60 / qpstep=4 / stats-write=0 / stats-read=0 / ipratio=1.40 / pbratio=1.30 / aq-mode=4 / aq-strength=1.00 / cutree / zone-count=0 / no-strict-cbr / qg-size=32 / no-rc-grain / qpmax=69 / qpmin=0 / no-const-vbv / sar=1 / overscan=0 / videoformat=5 / range=0 / colorprim=1 / transfer=1 / colormatrix=1 / chromaloc=0 / display-window=0 / cll=0,0 / min-luma=0 / max-luma=255 / log2-max-poc-lsb=8 / vui-timing-info / vui-hrd-info / slices=1 / no-opt-qp-pps / no-opt-ref-list-length-pps / no-multi-pass-opt-rps / scenecut-bias=0.05 / hist-threshold=0.03 / no-opt-cu-delta-qp / no-aq-motion / no-hdr10 / no-hdr10-opt / no-dhdr10-opt / no-idr-recovery-sei / analysis-reuse-level=0 / analysis-save-reuse-level=0 / analysis-load-reuse-level=0 / scale-factor=0 / refine-intra=0 / refine-inter=0 / refine-mv=1 / refine-ctu-distortion=0 / no-limit-sao / ctu-info=0 / no-lowpass-dct / refine-analysis-type=0 / copy-pic=1 / max-ausize-factor=1.0 / no-dynamic-refine / no-single-sei / no-hevc-aq / no-svt / no-field / qp-adaptation-range=1.00 / no-scenecut-aware-qpconformance-window-offsets / right=0 / bottom=0 / decoder-max-rate=0
Language : English
Default : Yes
Forced : No
Color range : Limited
Color primaries : BT.709
Transfer characteristics : BT.709
Matrix coefficients : BT.709

Audio
ID : 2
Format : AAC
Format/Info : Advanced Audio Codec
Format profile : LC
Codec ID : A_AAC
Duration : 46 min 29 s
Bit rate : 132 kb/s
Channel(s) : 2 channels
Channel positions : Front: L R
Sampling rate : 48.0 kHz
Frame rate : 46.875 FPS (1024 spf)
Compression mode : Lossy
Delay relative to video : 9 ms
Stream size : 43.4 MiB (4%)
Language : English
Default : Yes
Forced : No

Text
ID : 3
Format : UTF-8
Codec ID : S_TEXT/UTF8
Codec ID/Info : UTF-8 Plain Text
Duration : 45 min 59 s
Bit rate : 101 b/s
Count of elements : 930
Stream size : 34.1 KiB (0%)
Language : English
Default : No
Forced : No
Screenshots

ITV - Joanna Lumley's Unseen Adventures (2020)

ITV - Joanna Lumley's Unseen Adventures (2020)

ITV - Joanna Lumley's Unseen Adventures (2020)

Welcome to my blog - daily update!
ITV - Joanna Lumley's Unseen Adventures (2020)