ITV On Assignment - Germany, Cuba and Italy (2019)

Posted By: notbanned
720p (HD) / HDTV
ITV On Assignment - Germany, Cuba and Italy (2019)

ITV On Assignment - Germany, Cuba and Italy (2019)
HDTV | 1280x720 | .MKV/AVC @ 3224 Kbps | 29 min 28 s | 693 MiB
Audio: English AAC 64 kbps, 2 channels | Subs: English
Genre: Documentary

Penny Marshall meets climate activists clashing with miners facing unemployment and uncertainty, in the battle over a coal mine being extended across an ancient forest in Germany. Chris Ship visits the first Catholic church to be built in Cuba since the triumph of Castro's communist revolution in 1959, where worshippers reminisce about life under the regime, which banned Christmas. Rageh Omaar visits the Italian prisons reforming female inmates through a variety of food-related schemes - including farming, brewing beer and selling cheese.

General
Unique ID : 43344824972308710437914353104455337228 (0x209BE8DDD42E170554F98F0697CA050C)
Complete name : ITV.On.Assignment.2019.Germany.Cuba.and.Italy.720p.mkv
Format : Matroska
Format version : Version 4 / Version 2
File size : 693 MiB
Duration : 29 min 28 s
Overall bit rate : 3 290 kb/s

Video
ID : 1
Format : AVC
Format/Info : Advanced Video Codec
Format profile : High@L3.1
Format settings, CABAC : Yes
Format settings, ReFrames : 4 frames
Codec ID : V_MPEG4/ISO/AVC
Duration : 29 min 28 s
Bit rate : 3 224 kb/s
Width : 1 280 pixels
Height : 720 pixels
Display aspect ratio : 16:9
Frame rate mode : Constant
Frame rate : 25.000 FPS
Color space : YUV
Chroma subsampling : 4:2:0
Bit depth : 8 bits
Scan type : Progressive
Bits/(Pixel*Frame) : 0.140
Stream size : 680 MiB (98%)
Encoding settings : cabac=1 / ref=4 / deblock=1:0:0 / analyse=0x3:0x113 / me=umh / subme=9 / psy=1 / psy_rd=1.00:0.00 / mixed_ref=1 / me_range=24 / chroma_me=1 / trellis=1 / 8x8dct=1 / cqm=0 / deadzone=21,11 / fast_pskip=0 / chroma_qp_offset=-2 / threads=18 / lookahead_threads=2 / sliced_threads=0 / nr=0 / decimate=1 / interlaced=0 / bluray_compat=0 / constrained_intra=0 / bframes=6 / b_pyramid=2 / b_adapt=2 / b_bias=0 / direct=1 / weightb=1 / open_gop=0 / weightp=2 / keyint=250 / keyint_min=25 / scenecut=40 / intra_refresh=0 / rc_lookahead=40 / rc=crf / mbtree=1 / crf=20.0 / qcomp=0.60 / qpmin=0 / qpmax=69 / qpstep=4 / ip_ratio=1.40 / aq=1:1.00
Language : English
Default : Yes
Forced : No
Color range : Limited
Color primaries : BT.709
Transfer characteristics : BT.709
Matrix coefficients : BT.709

Audio
ID : 2
Format : AAC
Format/Info : Advanced Audio Codec
Format profile : HE-AAC / LC
Codec ID : A_AAC
Duration : 29 min 27 s
Bit rate : 64.0 kb/s
Channel(s) : 2 channels
Channel positions : Front: L R
Sampling rate : 48.0 kHz / 24.0 kHz
Frame rate : 23.438 FPS (1024 spf)
Compression mode : Lossy
Stream size : 13.5 MiB (2%)
Language : English
Default : Yes
Forced : No

Text
ID : 3
Format : UTF-8
Codec ID : S_TEXT/UTF8
Codec ID/Info : UTF-8 Plain Text
Duration : 29 min 1 s
Bit rate : 77 b/s
Count of elements : 348
Stream size : 16.4 KiB (0%)
Language : English
Default : No
Forced : No


Screenshots:

ITV On Assignment - Germany, Cuba and Italy (2019)

ITV On Assignment - Germany, Cuba and Italy (2019)

ITV On Assignment - Germany, Cuba and Italy (2019)

ITV On Assignment - Germany, Cuba and Italy (2019)