Tags
Language
Tags
June 2024
Su Mo Tu We Th Fr Sa
26 27 28 29 30 31 1
2 3 4 5 6 7 8
9 10 11 12 13 14 15
16 17 18 19 20 21 22
23 24 25 26 27 28 29
30 1 2 3 4 5 6

ITV - The Motorbike Show Special (2018)

Posted By: notbanned
SD / DVDRip
ITV - The Motorbike Show Special (2018)

ITV - The Motorbike Show Special (2018)
PDTV | 960x540 | .MKV/AVC @ 1552 Kbps | 3x~45min | 1.58 GiB
Audio: English AAC 127 kbps, 2 channels | Subs: None
Genre: Documentary

Henry Cole tells the stories of three of the world's greatest motorbike brands.
Part 1: Triumph
Henry tells the story of Triumph, the world's oldest production motorbike brand. He explores the fascinating back histories of their most iconic models including the Bonneville, the Thunderbird and the Daytona and visits the Triumph's state of the art factory at Hinckley to discover how today's bikes are built.

Part 2: Norton
Henry tells the story of Norton, the world's greatest racing brand. Starting in a small factory in Birmingham, Norton rose to dominate the Isle of Man TT and the international racing circuit. Featuring interviews with designers, engineers and famous riders such as Trevor Nation, as well as rare archival material, this is a compelling tale.

Part 3: Ducati
Henry tells the story of Ducati, Italy's greatest bike brand. Featuring interviews with famous riders such as Carl Fogarty, Henry explores how Ducati's innovative engineering and cutting-edge design enabled them to produce world beating bikes.

General
Unique ID : 210111723488136525075066041384983603948 (0x9E120BC636E124B977C5B9164CD82AEC)
Complete name : ITV.The.Motorbike.Show.Special.1of3.Triumph.PDTV.mkv
Format : Matroska
Format version : Version 4 / Version 2
File size : 551 MiB
Duration : 45 min 48 s
Overall bit rate : 1 682 kb/s

Video
ID : 1
Format : AVC
Format/Info : Advanced Video Codec
Format profile : Main@L3.1
Format settings, CABAC : Yes
Format settings, ReFrames : 4 frames
Codec ID : V_MPEG4/ISO/AVC
Duration : 45 min 48 s
Bit rate : 1 552 kb/s
Width : 960 pixels
Height : 540 pixels
Display aspect ratio : 16:9
Frame rate mode : Constant
Frame rate : 25.000 FPS
Color space : YUV
Chroma subsampling : 4:2:0
Bit depth : 8 bits
Scan type : Progressive
Bits/(Pixel*Frame) : 0.120
Stream size : 509 MiB (92%)
Writing library : x264 core 157 r2935 545de2f
Encoding settings : cabac=1 / ref=4 / deblock=1:0:0 / analyse=0x1:0x111 / me=umh / subme=9 / psy=1 / psy_rd=1.00:0.00 / mixed_ref=1 / me_range=16 / chroma_me=1 / trellis=1 / 8x8dct=0 / cqm=0 / deadzone=21,11 / fast_pskip=0 / chroma_qp_offset=-2 / threads=17 / lookahead_threads=1 / sliced_threads=0 / nr=0 / decimate=1 / interlaced=0 / bluray_compat=0 / constrained_intra=0 / bframes=6 / b_pyramid=2 / b_adapt=2 / b_bias=0 / direct=1 / weightb=1 / open_gop=0 / weightp=2 / keyint=250 / keyint_min=25 / scenecut=40 / intra_refresh=0 / rc_lookahead=40 / rc=crf / mbtree=1 / crf=21.0 / qcomp=0.60 / qpmin=0 / qpmax=69 / qpstep=4 / ip_ratio=1.40 / aq=1:1.00
Language : English
Default : Yes
Forced : No

Audio
ID : 2
Format : AAC
Format/Info : Advanced Audio Codec
Format profile : LC
Codec ID : A_AAC
Duration : 45 min 48 s
Bit rate : 127 kb/s
Channel(s) : 2 channels
Channel positions : Front: L R
Sampling rate : 48.0 kHz
Frame rate : 46.875 FPS (1024 spf)
Compression mode : Lossy
Delay relative to video : 9 ms
Stream size : 41.7 MiB (8%)
Language : English
Default : Yes
Forced : No


Screenshots:

ITV - The Motorbike Show Special (2018)

ITV - The Motorbike Show Special (2018)

ITV - The Motorbike Show Special (2018)

ITV - The Motorbike Show Special (2018)