Tags
Language
Tags

ITV - Judi Dench's Wild Borneo Adventure (2019)

Posted By: notbanned
1080p (FullHD) / HDTV IMDb
ITV - Judi Dench's Wild Borneo Adventure (2019)

ITV - Judi Dench's Wild Borneo Adventure (2019)
HDTV | 1920x1080 | .MKV/AVC @ 3623 Kbps | 2x~46min | 2.38 GiB
Audio: English AAC 140 kbps, 2 channels | Subs: English
Genre: Documentary

Judi Dench embarks on a trip of a lifetime to uncover the lush rainforests, magical wildlife and spectacular coastlines of Malaysian Borneo. She experiences the rainforest for the first time travelling to the heart of the island with expert Glen Reynolds, before observing orangutans in the wild and learning how they are helping to prevent global warming. She then journeys down Borneo's Kinabatangan river and along the island's coastline to explore the unique wildlife that lives in this threatened environment. With scientist Kerisha Kntayya, Judi joins a crocodile hunt with a difference. Kerisha plucks young crocodiles out of the water. Judi then joins Kerisha's team as they wrestle an adult croc as part of the study Kerisha hopes will help save these prehistoric creatures. Judi, who's had a fascination with bats from an early age, also explores the Gomantong cave, home to more than a million bats.

General
Unique ID : 74426090973943523778820415851563343933 (0x37FDF197F6D9F7D500495987A650603D)
Complete name : ITV.Wild.Borneo.Adventure.1of2.1080p.mkv
Format : Matroska
Format version : Version 4 / Version 2
File size : 1.21 GiB
Duration : 46 min 9 s
Overall bit rate : 3 766 kb/s

Video
ID : 1
Format : HEVC
Format/Info : High Efficiency Video Coding
Format profile : Main 10@L4@Main
Codec ID : V_MPEGH/ISO/HEVC
Duration : 46 min 9 s
Bit rate : 3 623 kb/s
Width : 1 920 pixels
Height : 1 080 pixels
Display aspect ratio : 16:9
Frame rate mode : Constant
Frame rate : 25.000 FPS
Color space : YUV
Chroma subsampling : 4:2:0
Bit depth : 10 bits
Bits/(Pixel*Frame) : 0.070
Stream size : 1.17 GiB (96%)
Encoding settings : cpuid=1111039 / frame-threads=3 / numa-pools=12 / wpp / no-pmode / no-pme / no-psnr / no-ssim / log-level=2 / input-csp=1 / input-res=1920x1080 / interlace=0 / total-frames=69225 / level-idc=0 / high-tier=1 / uhd-bd=0 / ref=3 / no-allow-non-conformance / no-repeat-headers / annexb / no-aud / no-hrd / info / hash=0 / no-temporal-layers / no-open-gop / min-keyint=25 / keyint=250 / gop-lookahead=12 / bframes=6 / b-adapt=2 / b-pyramid / bframe-bias=0 / rc-lookahead=20 / lookahead-slices=6 / scenecut=40 / radl=0 / no-splice / no-intra-refresh / ctu=64 / min-cu-size=8 / no-rect / no-amp / max-tu-size=32 / tu-inter-depth=1 / tu-intra-depth=1 / limit-tu=0 / rdoq-level=0 / dynamic-rd=0.00 / no-ssim-rd / signhide / no-tskip / nr-intra=0 / nr-inter=0 / no-constrained-intra / strong-intra-smoothing / max-merge=3 / limit-refs=1 / no-limit-modes / me=1 / subme=2 / merange=57 / temporal-mvp / weightp / weightb / no-analyze-src-pics / deblock=0:0 / sao / no-sao-non-deblock / rd=3 / early-skip / rskip / no-fast-intra / no-tskip-fast / no-cu-lossless / b-intra / no-splitrd-skip / rdpenalty=0 / psy-rd=2.00 / psy-rdoq=0.00 / no-rd-refine / no-lossless / cbqpoffs=0 / crqpoffs=0 / rc=crf / crf=23.0 / qcomp=0.60 / qpstep=4 / stats-write=0 / stats-read=0 / ipratio=1.40 / pbratio=1.30 / aq-mode=2 / aq-strength=1.00 / cutree / zone-count=0 / no-strict-cbr / qg-size=32 / no-rc-grain / qpmax=69 / qpmin=0 / no-const-vbv / sar=0 / overscan=0 / videoformat=5 / range=0 / colorprim=1 / transfer=1 / colormatrix=1 / chromaloc=0 / display-window=0cll=0,0 / min-luma=0 / max-luma=1023 / log2-max-poc-lsb=8 / vui-timing-info / vui-hrd-info / slices=1 / no-opt-qp-pps / no-opt-ref-list-length-pps / no-multi-pass-opt-rps / scenecut-bias=0.05 / no-opt-cu-delta-qp / no-aq-motion / no-hdr / no-hdr-opt / no-dhdr10-opt / no-idr-recovery-sei / analysis-reuse-level=5 / scale-factor=0 / refine-intra=0 / refine-inter=0 / refine-mv=0 / refine-ctu-distortion=0 / no-limit-sao / ctu-info=0 / no-lowpass-dct / refine-analysis-type=0 / copy-pic=1 / max-ausize-factor=1.0 / no-dynamic-refine / no-single-sei / no-hevc-aq / no-svt / no-field / qp-adaptation-range=1.00
Language : English
Default : Yes
Forced : No
Color range : Limited
Color primaries : BT.709
Transfer characteristics : BT.709
Matrix coefficients : BT.709

Audio
ID : 2
Format : AAC
Format/Info : Advanced Audio Codec
Format profile : LC
Codec ID : A_AAC
Duration : 46 min 8 s
Bit rate : 140 kb/s
Channel(s) : 2 channels
Channel positions : Front: L R
Sampling rate : 48.0 kHz
Frame rate : 46.875 FPS (1024 spf)
Compression mode : Lossy
Delay relative to video : 9 ms
Stream size : 46.3 MiB (4%)
Language : English
Default : Yes
Forced : No

Text
ID : 3
Format : UTF-8
Codec ID : S_TEXT/UTF8
Codec ID/Info : UTF-8 Plain Text
Duration : 45 min 38 s
Bit rate : 92 b/s
Count of elements : 772
Stream size : 31.0 KiB (0%)
Language : English
Default : No
Forced : No


Screenshots:

ITV - Judi Dench's Wild Borneo Adventure (2019)

ITV - Judi Dench's Wild Borneo Adventure (2019)

ITV - Judi Dench's Wild Borneo Adventure (2019)

ITV - Judi Dench's Wild Borneo Adventure (2019)