Tags
Language
Tags

I Wanna Hold Your Hand (1978) [Criterion Collection]

Posted By: RSU75
1080p (FullHD) / BDRip IMDb
I Wanna Hold Your Hand (1978) [Criterion Collection]

I Wanna Hold Your Hand (1978) [Criterion Collection, Spine #967]
BDRip 1080p | MKV | AVC 1920x1040, ~ 4.1 Mbps | 1hr 39mn | 4.03 GB
English: DTS, 6 ch, 1510 kbps; English (Commentary): AC3, 2 ch, 192 kbps
BDRip 720p | MKV | AVC 1280x692, ~ 2.9 Mbps | 1hr 39mn | 2.46 GB
English: AC3, 6 ch, 448 kbps; English (Commentary): AC3, 2 ch, 192 kbps
Subtitles: English
Genre: Comedy, Music, Romance



Director: Robert Zemeckis
Writer: Robert Zemeckis, Bob Gale
Stars: Nancy Allen, Bobby Di Cicco, Marc McClure

On February 9, 1964, the Beatles made their first live appearance on American television on The Ed Sullivan Show, ratcheting up the frenzy of a fan base whose ecstatic devotion to the band heralded an explosive new wave of youth culture. I Wanna Hold Your Hand looks back to that fateful weekend, following six New Jersey teenagers, each with different reasons for wanting to see the Fab Four, on a madcap mission to Manhattan to meet the band and score tickets to the show. With this rollicking first feature, director Robert Zemeckis and cowriter Bob Gale established themselves as a film­making team par excellence, adept at mining America’s cultural memory for comedy and adventure with a winning mixture of sweet nostalgia and playful irreverence.

Extras:
- Audio commentary from 2004 featuring Zemeckis and Gale




General
Unique ID : 228848208890151442199693968401754264087 (0xAC2A8FD3929AB41EA236C37BADE49217)
Complete name : F:\IWannaHoldYourHand.78.Cr.1p\IWannaHoldYourHand.78.Cr.1p.mkv
Format : Matroska
Format version : Version 4 / Version 2
File size : 4.03 GiB
Duration : 1 h 39 min
Overall bit rate : 5 816 kb/s
Movie name : Release RSU75
Encoded date : UTC 2019-04-01 10:59:14
Writing application : mkvmerge v6.6.0 ('The Edge Of The In Between') built on Dec 1 2013 17:55:00
Writing library : libebml v1.3.0 + libmatroska v1.4.1

Video
ID : 1
Format : AVC
Format/Info : Advanced Video Codec
Format profile : High@L4.1
Format settings : CABAC / 4 Ref Frames
Format settings, CABAC : Yes
Format settings, ReFrames : 4 frames
Codec ID : V_MPEG4/ISO/AVC
Duration : 1 h 39 min
Bit rate : 4 100 kb/s
Width : 1 920 pixels
Height : 1 040 pixels
Display aspect ratio : 1.85:1
Frame rate mode : Constant
Frame rate : 23.976 (23976/1000) FPS
Color space : YUV
Chroma subsampling : 4:2:0
Bit depth : 8 bits
Scan type : Progressive
Bits/(Pixel*Frame) : 0.086
Stream size : 2.77 GiB (69%)
Writing library : x264 core 148 r2643 5c65704
Encoding settings : cabac=1 / ref=4 / deblock=1:0:0 / analyse=0x3:0x113 / me=umh / subme=8 / psy=1 / psy_rd=1.00:0.00 / mixed_ref=1 / me_range=24 / chroma_me=1 / trellis=1 / 8x8dct=1 / cqm=0 / deadzone=21,11 / fast_pskip=1 / chroma_qp_offset=-2 / threads=3 / lookahead_threads=1 / sliced_threads=0 / nr=0 / decimate=1 / interlaced=0 / bluray_compat=0 / constrained_intra=0 / bframes=3 / b_pyramid=0 / b_adapt=2 / b_bias=0 / direct=3 / weightb=1 / open_gop=0 / weightp=2 / keyint=250 / keyint_min=25 / scenecut=40 / intra_refresh=0 / rc_lookahead=40 / rc=abr / mbtree=1 / bitrate=4100 / ratetol=1.0 / qcomp=0.60 / qpmin=10 / qpmax=51 / qpstep=4 / ip_ratio=1.41 / aq=1:1.00
Language : English
Default : Yes
Forced : No

Audio #1
ID : 2
Format : DTS
Format/Info : Digital Theater Systems
Codec ID : A_DTS
Duration : 1 h 39 min
Bit rate mode : Constant
Bit rate : 1 509 kb/s
Channel(s) : 6 channels
Channel layout : C L R Ls Rs LFE
Sampling rate : 48.0 kHz
Frame rate : 93.750 FPS (512 SPF)
Bit depth : 24 bits
Compression mode : Lossy
Stream size : 1.05 GiB (26%)
Language : English
Default : Yes
Forced : No

Audio #2
ID : 3
Format : AC-3
Format/Info : Audio Coding 3
Commercial name : Dolby Digital
Codec ID : A_AC3
Duration : 1 h 39 min
Bit rate mode : Constant
Bit rate : 192 kb/s
Channel(s) : 2 channels
Channel layout : L R
Sampling rate : 48.0 kHz
Frame rate : 31.250 FPS (1536 SPF)
Bit depth : 16 bits
Compression mode : Lossy
Stream size : 136 MiB (3%)
Title : Commentary
Language : English
Service kind : Complete Main
Default : No
Forced : No

Text
ID : 4
Format : PGS
Muxing mode : zlib
Codec ID : S_HDMV/PGS
Codec ID/Info : Picture based subtitle format used on BDs/HD-DVDs
Language : English
Default : Yes
Forced : No
Statistics Tags Issue : MakeMKV v1.14.3 win(x64-release) 2019-03-31 18:57:15 / mkvmerge v6.6.0 ('The Edge Of The In Between') built on Dec 1 2013 17:55:00 2019-04-01 10:59:14
FromStats_BitRate : 86684
FromStats_Duration : 01:38:21.916854166
FromStats_FrameCount : 3604
FromStats_OriginalSourceMed : 001200
FromStats_StreamSize : 63950635

Menu
00:00:00.000 : en:Chapter 01
00:10:19.493 : en:Chapter 02
00:17:22.916 : en:Chapter 03
00:23:40.710 : en:Chapter 04
00:37:06.682 : en:Chapter 05
00:50:30.360 : en:Chapter 06
01:04:33.327 : en:Chapter 07
01:15:02.664 : en:Chapter 08
01:20:35.664 : en:Chapter 09





General
Unique ID : 237730794226756249159961508065210928937 (0xB2D9491885A602638CE39DEAF84E0F29)
Complete name : F:\IWannaHoldYourHand.78.Cr.7p\IWannaHoldYourHand.78.Cr.7p.mkv
Format : Matroska
Format version : Version 4 / Version 2
File size : 2.46 GiB
Duration : 1 h 39 min
Overall bit rate : 3 554 kb/s
Movie name : Release RSU75
Encoded date : UTC 2019-04-01 15:03:24
Writing application : mkvmerge v6.6.0 ('The Edge Of The In Between') built on Dec 1 2013 17:55:00
Writing library : libebml v1.3.0 + libmatroska v1.4.1

Video
ID : 1
Format : AVC
Format/Info : Advanced Video Codec
Format profile : High@L4.1
Format settings : CABAC / 4 Ref Frames
Format settings, CABAC : Yes
Format settings, ReFrames : 4 frames
Codec ID : V_MPEG4/ISO/AVC
Duration : 1 h 39 min
Bit rate : 2 900 kb/s
Width : 1 280 pixels
Height : 692 pixels
Display aspect ratio : 1.85:1
Frame rate mode : Constant
Frame rate : 23.976 (23976/1000) FPS
Color space : YUV
Chroma subsampling : 4:2:0
Bit depth : 8 bits
Scan type : Progressive
Bits/(Pixel*Frame) : 0.137
Stream size : 1.97 GiB (80%)
Writing library : x264 core 148 r2643 5c65704
Encoding settings : cabac=1 / ref=4 / deblock=1:0:0 / analyse=0x3:0x113 / me=umh / subme=8 / psy=1 / psy_rd=1.00:0.00 / mixed_ref=1 / me_range=24 / chroma_me=1 / trellis=1 / 8x8dct=1 / cqm=0 / deadzone=21,11 / fast_pskip=1 / chroma_qp_offset=-2 / threads=3 / lookahead_threads=1 / sliced_threads=0 / nr=0 / decimate=1 / interlaced=0 / bluray_compat=0 / constrained_intra=0 / bframes=3 / b_pyramid=0 / b_adapt=2 / b_bias=0 / direct=3 / weightb=1 / open_gop=0 / weightp=2 / keyint=250 / keyint_min=25 / scenecut=40 / intra_refresh=0 / rc_lookahead=40 / rc=abr / mbtree=1 / bitrate=2900 / ratetol=1.0 / qcomp=0.60 / qpmin=10 / qpmax=51 / qpstep=4 / ip_ratio=1.41 / aq=1:1.00
Language : English
Default : Yes
Forced : No

Audio #1
ID : 2
Format : AC-3
Format/Info : Audio Coding 3
Commercial name : Dolby Digital
Codec ID : A_AC3
Duration : 1 h 39 min
Bit rate mode : Constant
Bit rate : 448 kb/s
Channel(s) : 6 channels
Channel layout : L R C LFE Ls Rs
Sampling rate : 48.0 kHz
Frame rate : 31.250 FPS (1536 SPF)
Bit depth : 16 bits
Compression mode : Lossy
Stream size : 318 MiB (13%)
Language : English
Service kind : Complete Main
Default : Yes
Forced : No

Audio #2
ID : 3
Format : AC-3
Format/Info : Audio Coding 3
Commercial name : Dolby Digital
Codec ID : A_AC3
Duration : 1 h 39 min
Bit rate mode : Constant
Bit rate : 192 kb/s
Channel(s) : 2 channels
Channel layout : L R
Sampling rate : 48.0 kHz
Frame rate : 31.250 FPS (1536 SPF)
Bit depth : 16 bits
Compression mode : Lossy
Stream size : 136 MiB (5%)
Title : Commentary
Language : English
Service kind : Complete Main
Default : No
Forced : No

Text
ID : 4
Format : PGS
Muxing mode : zlib
Codec ID : S_HDMV/PGS
Codec ID/Info : Picture based subtitle format used on BDs/HD-DVDs
Language : English
Default : Yes
Forced : No

Menu
00:00:00.000 : en:Chapter 01
00:10:19.493 : en:Chapter 02
00:17:22.916 : en:Chapter 03
00:23:40.710 : en:Chapter 04
00:37:06.682 : en:Chapter 05
00:50:30.360 : en:Chapter 06
01:04:33.327 : en:Chapter 07
01:15:02.664 : en:Chapter 08
01:20:35.664 : en:Chapter 09




Screenshots 1080p (click to enlarge to original size):

I Wanna Hold Your Hand (1978) [Criterion Collection]

I Wanna Hold Your Hand (1978) [Criterion Collection]

I Wanna Hold Your Hand (1978) [Criterion Collection]


I Wanna Hold Your Hand (1978) [Criterion Collection]



Screenshots 720p (click to enlarge to original size):

I Wanna Hold Your Hand (1978) [Criterion Collection]




–––––––––––––––––––––––––––––––––––––––-
OR OR
–––––––––––––––––––––––––––––––––––––––-

–––––––––––––––––––––––––––––––––––––––-