Tags
Language
Tags

Butter Media - Icemen: 200 years in Antarctica (2020)

Posted By: Tutorial
1080p (FullHD) / HDTV
Butter Media - Icemen: 200 years in Antarctica (2020)

Butter Media - Icemen: 200 years in Antarctica (2020)
WEB-DL | 1920 x 1080 | .MKV/AVC @ 4632 Kbps | 52 min 16 s | 1.75 GB
Audio: English AAC 160 Kbps, 2 channels | Subs: English
Genre: Documentary

A riveting story of polar exploration that investigates the motivation, psychology, science, and physical endurance that have characterized the historic heroes who have explored the frozen continent of Antarctica over the last 200 years.

General
Complete name : Icemen.200.years.in.Antarctica.mp4
Format : MPEG-4
Format profile : Base Media
Codec ID : isom (isom)
File size : 1.75 GiB
Duration : 52 min 16 s
Overall bit rate mode : Variable
Overall bit rate : 4 794 kb/s
Encoded date : UTC 2020-12-03 15:28:19
Tagged date : UTC 2020-12-03 15:28:19

Video
ID : 1
Format : AVC
Format/Info : Advanced Video Codec
Format profile : High@L4.1
Format settings, CABAC : No
Format settings, ReFrames : 1 frame
Format settings, GOP : M=1, N=12
Codec ID : avc1
Codec ID/Info : Advanced Video Coding
Duration : 52 min 16 s
Bit rate : 4 632 kb/s
Maximum bit rate : 27.5 Mb/s
Width : 1 920 pixels
Height : 1 080 pixels
Display aspect ratio : 16:9
Frame rate mode : Constant
Frame rate : 25.000 FPS
Color space : YUV
Chroma subsampling : 4:2:0
Bit depth : 8 bits
Scan type : Progressive
Bits/(Pixel*Frame) : 0.089
Stream size : 1.69 GiB (97%)
Title : Icemen.200.years.in.Antarctica.1080p.HDTV.x264.AAC..org.mp4
Encoded date : UTC 2020-12-01 18:48:16
Tagged date : UTC 2020-12-03 15:29:07

Audio
ID : 2
Format : AAC
Format/Info : Advanced Audio Codec
Format profile : LC
Codec ID : 40
Duration : 52 min 16 s
Bit rate mode : Variable
Bit rate : 160 kb/s
Maximum bit rate : 227 kb/s
Channel(s) : 2 channels
Channel positions : Front: L R
Sampling rate : 48.0 kHz
Frame rate : 46.875 FPS (1024 spf)
Compression mode : Lossy
Stream size : 59.8 MiB (3%)
Title : Icemen.200.years.in.Antarctica.1080p.HDTV.x264.AAC..org.mp4
Encoded date : UTC 2020-12-03 15:28:52
Tagged date : UTC 2020-12-03 15:29:07

Text
ID : 3
Format : Timed Text
Codec ID : tx3g
Duration : 52 min 0 s
Bit rate mode : Variable
Bit rate : 108 b/s
Stream size : 41.0 KiB (0%)
Title : Icemen.200.years.in.Antarctica.1080p.HDTV.x264.AAC..org.srt
Forced : No
Encoded date : UTC 2020-12-03 15:29:07
Tagged date : UTC 2020-12-03 15:29:07
Screenshots

Butter Media - Icemen: 200 years in Antarctica (2020)

Butter Media - Icemen: 200 years in Antarctica (2020)

Welcome to my blog - daily update!