Tags
Language
Tags

I'm a Celebrity Get Me Out of Here! S17E21

Posted By: Tavaz
1080p (FullHD) / HDTV IMDb
I'm a Celebrity Get Me Out of Here! S17E21

I'm a Celebrity Get Me Out of Here! S17E21
HDTV | MKV | 1916x1080 | English | H264 @ 7987 kbps | AC-3 @ 192 kbps | 1 h 5 min | 3.80 GiB
Subtitles: English
Genre: Comedy

I'm a Celebrity…Get Me Out of Here! is a British reality television show, first screened in 2002, in which celebrities live in jungle conditions with few creature comforts. The show has been hosted by Ant & Dec since its inception. It is filmed in Murwillumbah, New South Wales, Australia and broadcast on ITV in the UK and on 3e in Ireland. The show is one of the largest in the world, with more than 700 staff working on the show 24 hours a day for three weeks. It is sponsored in the UK by supermarket chain Iceland and in Ireland by MultiTrip.com.

51cf953767454e60bcb726089299d1bd.mkv (3.8 GB)



General
Unique ID : 0 (0x0)
Complete name : ./51cf953767454e60bcb726089299d1bd.mkv
Format : Matroska
Format version : Version 4 / Version 2
File size : 3.80 GiB
Duration : 1 h 5 min
Overall bit rate : 8 346 kb/s
Movie name : Im A Celebrity Get Me Out Of Here S17E20
Encoded date : UTC 2010-02-22 21:41:29
Writing application : no_variable_data
Writing library : no_variable_data
Tool : PLUTONiUM RLS Encoder v10.2

Video
ID : 1
Format : AVC
Format/Info : Advanced Video Codec
Format profile : High@L4.2
Format settings : CABAC / 4 Ref Frames
Format settings, CABAC : Yes
Format settings, RefFrames : 4 frames
Codec ID : V_MPEG4/ISO/AVC
Duration : 1 h 5 min
Bit rate : 7 988 kb/s
Width : 1 916 pixels
Height : 1 080 pixels
Display aspect ratio : 16:9
Frame rate mode : Constant
Frame rate : 50.000 FPS
Color space : YUV
Chroma subsampling : 4:2:0
Bit depth : 8 bits
Scan type : Progressive
Bits/(Pixel*Frame) : 0.077
Stream size : 3.64 GiB (96%)
Writing library : x264 core 152 r2851 ba24899
Encoding settings : cabac=1 / ref=4 / deblock=1:0:0 / analyse=0x3:0x113 / me=hex / subme=8 / psy=1 / psy_rd=1.00:0.00 / mixed_ref=1 / me_range=16 / chroma_me=1 / trellis=2 / 8x8dct=1 / cqm=0 / deadzone=21,11 / fast_pskip=1 / chroma_qp_offset=-2 / threads=12 / lookahead_threads=2 / sliced_threads=0 / nr=0 / decimate=1 / interlaced=0 / bluray_compat=0 / constrained_intra=0 / bframes=3 / b_pyramid=2 / b_adapt=1 / b_bias=0 / direct=3 / weightb=1 / open_gop=0 / weightp=2 / keyint=250 / keyint_min=25 / scenecut=40 / intra_refresh=0 / rc_lookahead=50 / rc=crf / mbtree=1 / crf=21.0 / qcomp=0.60 / qpmin=0 / qpmax=69 / qpstep=4 / ip_ratio=1.40 / aq=1:1.00
Language : English
Default : Yes
Forced : No
Color range : Limited
Matrix coefficients : BT.709

Audio
ID : 2
Format : AC-3
Format/Info : Audio Coding 3
Format settings, Endianness : Big
Codec ID : A_AC3
Duration : 1 h 5 min
Bit rate mode : Constant
Bit rate : 192 kb/s
Channel(s) : 2 channels
Channel positions : Front: L R
Sampling rate : 48.0 kHz
Frame rate : 31.250 FPS (1536 SPF)
Bit depth : 16 bits
Compression mode : Lossy
Stream size : 89.6 MiB (2%)
Language : English
Service kind : Complete Main
Default : Yes
Forced : No

Text
ID : 3
Format : UTF-8
Codec ID : S_TEXT/UTF8
Codec ID/Info : UTF-8 Plain Text
Language : English
Default : No
Forced : No





I'm a Celebrity Get Me Out of Here! S17E21


I'm a Celebrity Get Me Out of Here! S17E21


I'm a Celebrity Get Me Out of Here! S17E21


I'm a Celebrity Get Me Out of Here! S17E21


I'm a Celebrity Get Me Out of Here! S17E21

All episodes