Tags
Language
Tags

Immortal France / Untel père et fils (1943)

Posted By: RSU75
1080p (FullHD) / BDRip IMDb
Immortal France / Untel père et fils (1943)

Immortal France / Untel père et fils (1943)
BDRip 1080p | MKV | AVC, 1480x1080, ~ 3.8 Mbps | 1hr 46mn | 3.96 GB
French (Français): DTS, 2 ch, 1510 kbps
BDRip 720p | MKV | AVC, 984x720, ~ 2.6 Mbps | 1hr 46mn | 2.28 MB
French (Français): AC3, 2 ch, 448 kbps
Subtitles: English, French (Français)
Genre: Drama, War



Director: Julien Duvivier
Writers: Marcel Achard (dialogue), Marcel Achard (screenplay)
Stars: Raimu, Michèle Morgan, Louis Jouvet

Film Distributor: Gaumont

The story of how the people of Paris cope with the strains and struggles of war, from the siege of the city by the Prussians during the Franco-Prussian War of 1871 to the invasion by the Germans in World War II.




General
Unique ID : 175911920790446127433677180446320171845 (0x845767512EC4E9778E38875D2F451B45)
Complete name : F:\ImmortalFrance.43.1p\ImmortalFrance.43.1p.mkv
Format : Matroska
Format version : Version 4 / Version 2
File size : 3.96 GiB
Duration : 1 h 46 min
Overall bit rate : 5 301 kb/s
Movie name : Release RSU75
Encoded date : UTC 2019-03-24 14:08:26
Writing application : mkvmerge v6.6.0 ('The Edge Of The In Between') built on Dec 1 2013 17:55:00
Writing library : libebml v1.3.0 + libmatroska v1.4.1

Video
ID : 1
Format : AVC
Format/Info : Advanced Video Codec
Format profile : High@L4.1
Format settings : CABAC / 4 Ref Frames
Format settings, CABAC : Yes
Format settings, ReFrames : 4 frames
Codec ID : V_MPEG4/ISO/AVC
Duration : 1 h 46 min
Bit rate : 3 800 kb/s
Width : 1 480 pixels
Height : 1 080 pixels
Display aspect ratio : 1.370
Frame rate mode : Constant
Frame rate : 24.000 FPS
Color space : YUV
Chroma subsampling : 4:2:0
Bit depth : 8 bits
Scan type : Progressive
Bits/(Pixel*Frame) : 0.099
Stream size : 2.75 GiB (70%)
Writing library : x264 core 148 r2643 5c65704
Encoding settings : cabac=1 / ref=4 / deblock=1:0:0 / analyse=0x3:0x113 / me=umh / subme=8 / psy=1 / psy_rd=1.00:0.00 / mixed_ref=1 / me_range=24 / chroma_me=1 / trellis=1 / 8x8dct=1 / cqm=0 / deadzone=21,11 / fast_pskip=1 / chroma_qp_offset=-2 / threads=3 / lookahead_threads=1 / sliced_threads=0 / nr=0 / decimate=1 / interlaced=0 / bluray_compat=0 / constrained_intra=0 / bframes=3 / b_pyramid=0 / b_adapt=2 / b_bias=0 / direct=3 / weightb=1 / open_gop=0 / weightp=2 / keyint=250 / keyint_min=25 / scenecut=40 / intra_refresh=0 / rc_lookahead=40 / rc=abr / mbtree=1 / bitrate=3800 / ratetol=1.0 / qcomp=0.60 / qpmin=10 / qpmax=51 / qpstep=4 / ip_ratio=1.41 / aq=1:1.00
Language : English
Default : Yes
Forced : No

Audio
ID : 2
Format : DTS
Format/Info : Digital Theater Systems
Codec ID : A_DTS
Duration : 1 h 46 min
Bit rate mode : Constant
Bit rate : 1 509 kb/s
Channel(s) : 2 channels
Channel layout : L R
Sampling rate : 48.0 kHz
Frame rate : 93.750 FPS (512 SPF)
Bit depth : 16 bits
Compression mode : Lossy
Stream size : 1.13 GiB (28%)
Language : French
Default : Yes
Forced : No

Text #1
ID : 3
Format : PGS
Muxing mode : zlib
Codec ID : S_HDMV/PGS
Codec ID/Info : Picture based subtitle format used on BDs/HD-DVDs
Language : English
Default : Yes
Forced : No

Text #2
ID : 4
Format : PGS
Muxing mode : zlib
Codec ID : S_HDMV/PGS
Codec ID/Info : Picture based subtitle format used on BDs/HD-DVDs
Language : French
Default : No
Forced : No

Menu
00:00:00.000 : en:Chapter 01
00:08:30.208 : en:Chapter 02
00:17:24.958 : en:Chapter 03
00:26:11.375 : en:Chapter 04
00:36:00.708 : en:Chapter 05
00:47:36.166 : en:Chapter 06
00:55:34.416 : en:Chapter 07
01:04:38.333 : en:Chapter 08
01:09:41.916 : en:Chapter 09
01:20:00.958 : en:Chapter 10
01:28:07.541 : en:Chapter 11
01:38:42.333 : en:Chapter 12






General
Unique ID : 199983924619085792882820585500558962462 (0x967380BCDFE5E5DB88A271CA272F2F1E)
Complete name : F:\ImmortalFrance.43.7p\ImmortalFrance.43.7p.mkv
Format : Matroska
Format version : Version 4 / Version 2
File size : 2.28 GiB
Duration : 1 h 46 min
Overall bit rate : 3 050 kb/s
Movie name : Release RSU75
Encoded date : UTC 2019-05-11 13:08:42
Writing application : mkvmerge v6.6.0 ('The Edge Of The In Between') built on Dec 1 2013 17:55:00
Writing library : libebml v1.3.0 + libmatroska v1.4.1

Video
ID : 1
Format : AVC
Format/Info : Advanced Video Codec
Format profile : High@L4.1
Format settings : CABAC / 4 Ref Frames
Format settings, CABAC : Yes
Format settings, ReFrames : 4 frames
Codec ID : V_MPEG4/ISO/AVC
Duration : 1 h 46 min
Bit rate : 2 600 kb/s
Width : 984 pixels
Height : 720 pixels
Display aspect ratio : 4:3
Frame rate mode : Constant
Frame rate : 24.000 FPS
Color space : YUV
Chroma subsampling : 4:2:0
Bit depth : 8 bits
Scan type : Progressive
Bits/(Pixel*Frame) : 0.153
Stream size : 1.90 GiB (83%)
Writing library : x264 core 148 r2643 5c65704
Encoding settings : cabac=1 / ref=4 / deblock=1:0:0 / analyse=0x3:0x113 / me=umh / subme=8 / psy=1 / psy_rd=1.00:0.00 / mixed_ref=1 / me_range=24 / chroma_me=1 / trellis=1 / 8x8dct=1 / cqm=0 / deadzone=21,11 / fast_pskip=1 / chroma_qp_offset=-2 / threads=3 / lookahead_threads=1 / sliced_threads=0 / nr=0 / decimate=1 / interlaced=0 / bluray_compat=0 / constrained_intra=0 / bframes=3 / b_pyramid=0 / b_adapt=2 / b_bias=0 / direct=3 / weightb=1 / open_gop=0 / weightp=2 / keyint=250 / keyint_min=25 / scenecut=40 / intra_refresh=0 / rc_lookahead=40 / rc=abr / mbtree=1 / bitrate=2600 / ratetol=1.0 / qcomp=0.60 / qpmin=10 / qpmax=51 / qpstep=4 / ip_ratio=1.41 / aq=1:1.00
Language : English
Default : Yes
Forced : No

Audio
ID : 2
Format : AC-3
Format/Info : Audio Coding 3
Commercial name : Dolby Digital
Codec ID : A_AC3
Duration : 1 h 46 min
Bit rate mode : Constant
Bit rate : 448 kb/s
Channel(s) : 2 channels
Channel layout : L R
Sampling rate : 48.0 kHz
Frame rate : 31.250 FPS (1536 SPF)
Bit depth : 16 bits
Compression mode : Lossy
Stream size : 343 MiB (15%)
Language : French
Service kind : Complete Main
Default : Yes
Forced : No

Text #1
ID : 3
Format : PGS
Muxing mode : zlib
Codec ID : S_HDMV/PGS
Codec ID/Info : Picture based subtitle format used on BDs/HD-DVDs
Language : English
Default : Yes
Forced : No

Text #2
ID : 4
Format : PGS
Muxing mode : zlib
Codec ID : S_HDMV/PGS
Codec ID/Info : Picture based subtitle format used on BDs/HD-DVDs
Language : French
Default : No
Forced : No

Menu
00:00:00.000 : en:Chapter 01
00:08:30.208 : en:Chapter 02
00:17:24.958 : en:Chapter 03
00:26:11.375 : en:Chapter 04
00:36:00.708 : en:Chapter 05
00:47:36.166 : en:Chapter 06
00:55:34.416 : en:Chapter 07
01:04:38.333 : en:Chapter 08
01:09:41.916 : en:Chapter 09
01:20:00.958 : en:Chapter 10
01:28:07.541 : en:Chapter 11
01:38:42.333 : en:Chapter 12




Screenshots 1080p (click to enlarge to original size):

Immortal France / Untel père et fils (1943)

Immortal France / Untel père et fils (1943)

Immortal France / Untel père et fils (1943)


Immortal France / Untel père et fils (1943)



Screenshots 720p (click to enlarge to original size):

Immortal France / Untel père et fils (1943)




–––––––––––––––––––––––––––––––––––––––-