Tags
Language
Tags

Immortal France / Untel père et fils (1943)

Posted By: RSU75
1080p (FullHD) / BluRay IMDb
Immortal France / Untel père et fils (1943)

Immortal France / Untel père et fils (1943)
Blu-Ray | BDMV | AVC, 1920x1080, ~30.0 Mbps | 1hr 46mn | 35,7 GB
French (Français): DTS-HD Master Audio, 2 ch, 1626 kbps \ DTS-HD Master Audio, 2 ch, 1660 kbps
Subtitles: English, French (Français)
Genre: Drama, War



Director: Julien Duvivier
Writers: Marcel Achard (dialogue), Marcel Achard (screenplay)
Stars: Raimu, Michèle Morgan, Louis Jouvet

Film Distributor: Gaumont

The story of how the people of Paris cope with the strains and struggles of war, from the siege of the city by the Prussians during the Franco-Prussian War of 1871 to the invasion by the Germans in World War II.

Extras:
- Destinée tragique d'une famille française - 31 minutes - Documentaire inédit de Pierre-Henri Gibert avec la participation de Eric Bonnefille auteur de Julien Duvivier le mal aimant du cinéma français
- Prologue du film
- Untel père et fils restauré




DISC INFO:

Disc Title: ImmortalFrance.43.BR
Disc Size: 38 439 405 207 bytes
Protection: AACS
BD-Java: No
Extras: 50Hz Content
BDInfo: 0.5.8

PLAYLIST REPORT:

Name: 00000.MPLS
Length: 1:46:53.666 (h:m:s.ms)
Size: 28 281 397 248 bytes
Total Bitrate: 35,28 Mbps

VIDEO:

Codec Bitrate Description
––- –––- –––––-
MPEG-4 AVC Video 29938 kbps 1080p / 24 fps / 16:9 / High Profile 4.1

AUDIO:

Codec Language Bitrate Description
––- –––– –––- –––––-
DTS-HD Master Audio French 1626 kbps 2.0 / 48 kHz / 1626 kbps / 16-bit (DTS Core: 2.0 / 48 kHz / 1509 kbps / 16-bit)
DTS-HD Master Audio French 1660 kbps 2.0 / 48 kHz / 1660 kbps / 16-bit (DTS Core: 2.0 / 48 kHz / 1509 kbps / 16-bit)

SUBTITLES:

Codec Language Bitrate Description
––- –––– –––- –––––-
Presentation Graphics French 35,787 kbps
Presentation Graphics English 31,120 kbps

FILES:

Name Time In Length Size Total Bitrate
–– –––- ––– –– ––––––-
00000.M2TS 0:00:00.000 0:00:09.625 5 455 872 4 535
00001.M2TS 0:00:09.625 1:46:44.000 28 275 935 232 35 323
00009.M2TS 1:46:53.625 0:00:00.041 6 144 1 180




Screenshots (click to enlarge to original size):

Immortal France / Untel père et fils (1943)

Immortal France / Untel père et fils (1943)

Immortal France / Untel père et fils (1943)

Immortal France / Untel père et fils (1943)

Immortal France / Untel père et fils (1943)

Immortal France / Untel père et fils (1943)

Immortal France / Untel père et fils (1943)



All thanks to the original uploader


–––––––––––––––––––––––––––––––––––––––-
OR OR
–––––––––––––––––––––––––––––––––––––––-

–––––––––––––––––––––––––––––––––––––––-