Tags
Language
Tags

Sci Ch - Impossible Engineering Series 7: Part 8 Conquering Avalanche Country (2020)

Posted By: Tutorial
1080p (FullHD) / HDTV
Sci Ch - Impossible Engineering Series 7: Part 8 Conquering Avalanche Country (2020)

Sci Ch - Impossible Engineering Series 7: Part 8 Conquering Avalanche Country (2020)
HDTV | 1920 x 1080 | .MP4/AVC @ 4543 Kbps | 42 min 29 s | 1.40 GB
Audio: English AAC 160 Kbps, 2 channels | Subs: English
Genre: Documentary

Deadly avalanches and catastrophic flooding are ever-present threats at one of the world's busiest ski resorts, but new technology and cutting-edge construction methods help engineers conquer the elements to keep this mountain-top getaway safe.

General
Complete name : Impossible.Engineering.Series.7.Part.8.Conquering.Avalanche.Country.mp4
Format : MPEG-4
Format profile : Base Media
Codec ID : isom (isom)
File size : 1.40 GiB
Duration : 42 min 29 s
Overall bit rate mode : Variable
Overall bit rate : 4 706 kb/s
Encoded date : UTC 2020-02-20 12:59:26
Tagged date : UTC 2020-02-20 12:59:26

Video
ID : 1
Format : AVC
Format/Info : Advanced Video Codec
Format profile : High@L4.1
Format settings, CABAC : No
Format settings, ReFrames : 2 frames
Format settings, GOP : M=1, N=12
Codec ID : avc1
Codec ID/Info : Advanced Video Coding
Duration : 42 min 28 s
Bit rate : 4 543 kb/s
Maximum bit rate : 21.6 Mb/s
Width : 1 920 pixels
Height : 1 080 pixels
Display aspect ratio : 16:9
Frame rate mode : Constant
Frame rate : 23.976 (24000/1001) FPS
Color space : YUV
Chroma subsampling : 4:2:0
Bit depth : 8 bits
Scan type : Progressive
Bits/(Pixel*Frame) : 0.091
Stream size : 1.35 GiB (97%)
Title : Impossible.Engineering.Series.7.Part.8.Conquering.Avalanche.Country.1080p.HDTV.x264.AAC..org.mp4
Language : English
Encoded date : UTC 2020-02-20 11:58:41
Tagged date : UTC 2020-02-20 13:00:29

Audio
ID : 2
Format : AAC
Format/Info : Advanced Audio Codec
Format profile : LC
Codec ID : 40
Duration : 42 min 29 s
Bit rate mode : Variable
Bit rate : 160 kb/s
Maximum bit rate : 240 kb/s
Channel(s) : 2 channels
Channel positions : Front: L R
Sampling rate : 48.0 kHz
Frame rate : 46.875 FPS (1024 spf)
Compression mode : Lossy
Stream size : 48.6 MiB (3%)
Title : Impossible.Engineering.Series.7.Part.8.Conquering.Avalanche.Country.1080p.HDTV.x264.AAC..org.mp4
Language : English
Encoded date : UTC 2020-02-20 13:00:22
Tagged date : UTC 2020-02-20 13:00:29

Text
ID : 3
Format : Timed Text
Codec ID : tx3g
Duration : 42 min 21 s
Bit rate mode : Variable
Bit rate : 129 b/s
Stream size : 39.9 KiB (0%)
Title : Impossible.Engineering.Series.7.Part.8.Conquering.Avalanche.Country.1080p.HDTV.x264.AAC..org.srt
Forced : No
Encoded date : UTC 2020-02-20 13:00:28
Tagged date : UTC 2020-02-20 13:00:29
Screenshots

Sci Ch - Impossible Engineering Series 7: Part 8 Conquering Avalanche Country (2020)

Sci Ch - Impossible Engineering Series 7: Part 8 Conquering Avalanche Country (2020)

Welcome to my blog - daily update!

Sci Ch - Impossible Engineering Series 7: Part 8 Conquering Avalanche Country (2020)