Tags
Language
Tags

In Vino (2019)

Posted By: Tavaz
1080p (FullHD) / WEB-DL IMDb
In Vino (2019)

In Vino (2019)
WEB-DL | MKV | 1908x796 | English | H264 @ 4595 kbps | AC-3 @ 384 kbps | 1 h 33 min | 3.24 GiB
Genre: Comedy, Crime

Its a special night for the Buoitton Family. Charles and Linda, extremely wealthy couple, invite their closest friends and family members to dinner. Before dinner is served Charles raises the glass for a toast to his family and falls face forward on his plate DEAD. Linda confesses that she had poisoned him and she had poisoned everyone in the room to get the money. The guests have one choice: Kill one person among them and take the blame for both murders to get the antidote or - DIE in one hour. What follows is an hysterical exchange between the over stressed members of the group who, in an attempt to establish who should die and who should be the killer, reveal all the skeletons in the closet they have been hiding from each-other for years.

3853609435d6cb61611a18c2b0b417a1.mkv (3.2 GB)



General
Complete name : ./3853609435d6cb61611a18c2b0b417a1.mkv
Format : Matroska
Format version : Version 4 / Version 2
File size : 3.24 GiB
Duration : 1 h 33 min
Overall bit rate : 4 981 kb/s
Encoded date : UTC 2020-03-28 20:16:45
Writing application : mkvmerge v35.0.0 ('All The Love In The World') 64-bit
Writing library : libebml v1.3.9 + libmatroska v1.5.2

Video
ID : 2
Format : AVC
Format/Info : Advanced Video Codec
Format profile : High@L4
Format settings : CABAC / 5 Ref Frames
Format settings, CABAC : Yes
Format settings, RefFrames : 5 frames
Codec ID : V_MPEG4/ISO/AVC
Duration : 1 h 33 min
Bit rate : 4 595 kb/s
Width : 1 908 pixels
Height : 796 pixels
Display aspect ratio : 2.40:1
Frame rate mode : Constant
Frame rate : 23.976 (24000/1001) FPS
Color space : YUV
Chroma subsampling : 4:2:0
Bit depth : 8 bits
Scan type : Progressive
Bits/(Pixel*Frame) : 0.126
Stream size : 2.99 GiB (92%)
Language : English
Default : Yes
Forced : No
Color range : Limited
Color primaries : BT.709
Transfer characteristics : BT.709
Matrix coefficients : BT.709

Audio
ID : 1
Format : AC-3
Format/Info : Audio Coding 3
Format settings, Endianness : Big
Codec ID : A_AC3
Duration : 1 h 33 min
Bit rate mode : Constant
Bit rate : 384 kb/s
Channel(s) : 6 channels
Channel positions : Front: L C R, Side: L R, LFE
Sampling rate : 48.0 kHz
Frame rate : 31.250 FPS (1536 SPF)
Bit depth : 16 bits
Compression mode : Lossy
Delay relative to video : -42 ms
Stream size : 256 MiB (8%)
Language : English
Service kind : Complete Main
Default : Yes
Forced : No

Menu
00:00:00.000 : en:1
00:08:52.000 : en:2
00:18:36.000 : en:3
00:28:08.000 : en:4
00:38:18.000 : en:5
00:47:04.000 : en:6
00:57:08.000 : en:7
01:10:58.000 : en:8
01:18:00.000 : en:9
01:30:36.000 : en:10





In Vino (2019)


In Vino (2019)


In Vino (2019)


In Vino (2019)


In Vino (2019)