Tags
Language
Tags

Incredibles 2 (2018)

Posted By: Without
1080p (FullHD) / WEB-DL IMDb
Incredibles 2 (2018)

Incredibles 2 (2018)
HDRip | MKV | 720x304 | AVC@1239 kb/s | English AC3@384 kb/s | 6 channels | 1 h 57 min | 1.33 GB
WEB-DL 1080p | MKV | 1920x804 | AVC@4503 kb/s | English AC3@384 kb/s | 6 channels | 1 h 57 min | 4.02 GB
Genre: Animation | Action | Adventure | Comedy | Family | Sci-Fi

Bob Parr (Mr. Incredible) is left to care for the kids while Helen (Elastigirl) is out saving the world.

IMDB - 2 wins & 2 nominations.


General
Incredibles.2.2018.HDRip.AC3.X264-CMRG.mkv
Format : Matroska
Format version : Version 4 / Version 2
File size : 1.33 GiB
Duration : 1 h 57 min
Overall bit rate : 1 618 kb/s
Movie name : CMRG
Encoded date : UTC 2018-10-22 14:31:07
Writing application : mkvmerge v11.0.0 ('Alive') 64bit
Writing library : libebml v1.3.4 + libmatroska v1.4.5

Video
ID : 1
Format : AVC
Format/Info : Advanced Video Codec
Format profile : High@L4.1
Format settings, CABAC : Yes
Format settings, ReFrames : 6 frames
Codec ID : V_MPEG4/ISO/AVC
Duration : 1 h 57 min
Bit rate : 1 239 kb/s
Width : 720 pixels
Height : 304 pixels
Display aspect ratio : 2.35:1
Frame rate mode : Constant
Frame rate : 23.976 (24000/1001) FPS
Color space : YUV
Chroma subsampling : 4:2:0
Bit depth : 8 bits
Scan type : Progressive
Bits/(Pixel*Frame) : 0.236
Stream size : 1.01 GiB (76%)
Writing library : x264 core 152 r2851 ba24899
Encoding settings : cabac=1 / ref=6 / deblock=1:-1:-1 / analyse=0x3:0x113 / me=umh / subme=7 / psy=0 / mixed_ref=1 / me_range=16 / chroma_me=1 / trellis=1 / 8x8dct=1 / cqm=0 / deadzone=21,11 / fast_pskip=1 / chroma_qp_offset=0 / threads=90 / lookahead_threads=2 / sliced_threads=0 / nr=0 / decimate=1 / interlaced=0 / bluray_compat=0 / constrained_intra=0 / bframes=5 / b_pyramid=2 / b_adapt=2 / b_bias=0 / direct=1 / weightb=1 / open_gop=0 / weightp=2 / keyint=250 / keyint_min=23 / scenecut=40 / intra_refresh=0 / rc_lookahead=40 / rc=abr / mbtree=1 / bitrate=1239 / ratetol=1.0 / qcomp=0.60 / qpmin=0 / qpmax=69 / qpstep=4 / ip_ratio=1.40 / aq=1:1.10
Default : Yes
Forced : No
Color range : Limited
Color primaries : BT.709
Transfer characteristics : BT.709
Matrix coefficients : BT.709

Audio
ID : 2
Format : AC-3
Format/Info : Audio Coding 3
Mode extension : CM (complete main)
Format settings, Endianness : Big
Codec ID : A_AC3
Duration : 1 h 57 min
Bit rate mode : Constant
Bit rate : 384 kb/s
Channel(s) : 6 channels
Channel positions : Front: L C R, Side: L R, LFE
Sampling rate : 48.0 kHz
Frame rate : 31.250 FPS (1536 spf)
Bit depth : 16 bits
Compression mode : Lossy
Stream size : 324 MiB (24%)
Default : Yes
Forced : No


General
Incredibles.2.2018.1080p.WEB-DL.DD5.1.H264-CMRG.mkv
Format : Matroska
Format version : Version 4 / Version 2
File size : 4.02 GiB
Duration : 1 h 57 min
Overall bit rate : 4 888 kb/s
Movie name : CMRG
Encoded date : UTC 2018-10-22 14:12:39
Writing application : mkvmerge v11.0.0 ('Alive') 64bit
Writing library : libebml v1.3.4 + libmatroska v1.4.5

Video
ID : 1
Format : AVC
Format/Info : Advanced Video Codec
Format profile : High@L4
Format settings, CABAC : Yes
Format settings, ReFrames : 5 frames
Codec ID : V_MPEG4/ISO/AVC
Duration : 1 h 57 min
Bit rate : 4 503 kb/s
Width : 1 920 pixels
Height : 804 pixels
Display aspect ratio : 2.40:1
Frame rate mode : Constant
Frame rate : 23.976 (23976/1000) FPS
Color space : YUV
Chroma subsampling : 4:2:0
Bit depth : 8 bits
Scan type : Progressive
Bits/(Pixel*Frame) : 0.122
Stream size : 3.71 GiB (92%)
Language : English
Default : Yes
Forced : No
Color range : Limited
Color primaries : BT.709
Transfer characteristics : BT.709
Matrix coefficients : BT.709

Audio
ID : 2
Format : AC-3
Format/Info : Audio Coding 3
Mode extension : CM (complete main)
Format settings, Endianness : Big
Codec ID : A_AC3
Duration : 1 h 57 min
Bit rate mode : Constant
Bit rate : 384 kb/s
Channel(s) : 6 channels
Channel positions : Front: L C R, Side: L R, LFE
Sampling rate : 48.0 kHz
Frame rate : 31.250 FPS (1536 spf)
Bit depth : 16 bits
Compression mode : Lossy
Delay relative to video : -42 ms
Stream size : 324 MiB (8%)
Language : English
Default : Yes
Forced : No

Menu
00:00:00.000 : en:Tony Interrogation
00:03:22.000 : en:Incredibles vs Underminer
00:08:52.000 : en:Chewed Out
00:09:36.000 : en:Family Dinner
00:13:38.000 : en:Poolside
00:15:44.000 : en:Deavor Meets Supers
00:21:19.000 : en:Pillow Talk
00:23:27.000 : en:New House
00:27:08.000 : en:Where's Mom?
00:28:59.000 : en:Runaway Train
00:35:11.000 : en:Raccoon Fight
00:39:07.000 : en:Helen Checks In
00:42:44.000 : en:Tony Forgets
00:43:41.000 : en:Air Rescue
00:47:35.000 : en:Breakfast Blowup
00:48:52.000 : en:Triumph Return
00:54:15.000 : en:Vi Embarrassed
00:56:16.000 : en:Tracking Screenslaver
01:00:58.000 : en:Screenslaver Caught
01:02:02.000 : en:Breaking Point
01:06:55.000 : en:E The Babysitter
01:09:18.000 : en:Helen Reviews Footage
01:11:28.000 : en:Bob's Apology
01:12:37.000 : en:Helen Slips Away
01:14:39.000 : en:Auntie E
01:18:00.000 : en:Cold Room
01:20:32.000 : en:House Attack
01:25:01.000 : en:Kids Alone
01:27:59.000 : en:Super Signing
01:31:54.000 : en:Kids To The Rescue
01:33:26.000 : en:Trap Is Sprung
01:36:24.000 : en:Battle Royale
01:37:45.000 : en:Save The Day
01:43:57.000 : en:Resolution
01:45:36.000 : en:Epilogue
01:47:30.000 : en:End Credits



HDRip Screenshots

Incredibles 2 (2018)

Incredibles 2 (2018)

Incredibles 2 (2018)


WEB-DL 1080p Screenshots

Incredibles 2 (2018)

Incredibles 2 (2018)

Incredibles 2 (2018)


Come Visit My Blog (•‿•)