Infini (2015)

Posted By: NaVi7
Infini (2015)

Infini (2015)
HDRip | AVI / XVID, 910 Kbps | 720x304 | 1h 50mn | 830 MiB
English: AC3, 128 Kbps (2 ch) | Subtitles: English (.srt)
Genre: Drama | Sci-Fi | Thriller

An elite 'search and rescue' team transport onto an off-world mining-facility to rescue Whit Carmichael, the lone survivor of a biological outbreak.

imdb

General
Complete name : Infini 2015 HDRip XviD AC3-GiANGi.avi
Format : AVI
Format/Info : Audio Video Interleave
File size : 830 MiB
Duration : 1h 50mn
Overall bit rate : 1 048 Kbps
Writing library : VirtualDub build 34807/release

Video
ID : 0
Format : MPEG-4 Visual
Format profile : Advanced Simple@L5
Format settings, BVOP : 1
Format settings, QPel : No
Format settings, GMC : No warppoints
Format settings, Matrix : Default (H.263)
Muxing mode : Packed bitstream
Codec ID : XVID
Codec ID/Hint : XviD
Duration : 1h 50mn
Bit rate : 910 Kbps
Width : 720 pixels
Height : 304 pixels
Display aspect ratio : 2.35:1
Frame rate : 23.976 fps
Color space : YUV
Chroma subsampling : 4:2:0
Bit depth : 8 bits
Scan type : Progressive
Compression mode : Lossy
Bits/(Pixel*Frame) : 0.173
Stream size : 721 MiB (87%)
Writing library : XviD 73

Audio
ID : 1
Format : AC-3
Format/Info : Audio Coding 3
Mode extension : CM (complete main)
Format settings, Endianness : Big
Codec ID : 2000
Duration : 1h 50mn
Bit rate mode : Constant
Bit rate : 128 Kbps
Channel(s) : 2 channels
Channel positions : Front: L R
Sampling rate : 48.0 KHz
Bit depth : 16 bits
Compression mode : Lossy
Stream size : 101 MiB (12%)
Alignment : Split accross interleaves
Interleave, duration : 42 ms (1.00 video frame)
Interleave, preload duratio : 500 ms


screenshots:

Infini (2015)

Infini (2015)

Infini (2015)