Terranoa - Inside a Trader's Brain (2015)

Posted By: notbanned
Terranoa - Inside a Trader's Brain (2015)

Terranoa - Inside a Trader's Brain (2015)
HDTV | 1280x720 | .MP4/AVC @ 3200 Kbps | 54 min 17 s | 1.28 GiB
Audio: English AAC 160 kbps, 2 channels | Subs: English
Genre: Documentary

After several rogue traders stories made the headlines these last years, revealing the human factor behind the global economy, neuroscientists have started to scrutinize traders' brain and stress management. What stimulates and motivates them? How can their brain cope with such a high level of stress and competition? This film investigates further into Neuroeconomics, showing how traders are being governed by unconscious psychological and biological processes which can trigger borderline behaviours and have disastrous financial consequences on the financial markets.


General
Complete name : Inside.A.Traders.Brain.720p.mp4
Format : MPEG-4
Format profile : Base Media
Codec ID : isom (isom)
File size : 1.28 GiB
Duration : 54 min 17 s
Overall bit rate mode : Variable
Overall bit rate : 3 362 kb/s

Video
ID : 1
Format : AVC
Format/Info : Advanced Video Codec
Format profile : High@L4.1
Format settings, CABAC : Yes
Format settings, ReFrames : 4 frames
Codec ID : avc1
Codec ID/Info : Advanced Video Coding
Duration : 54 min 17 s
Bit rate : 3 200 kb/s
Maximum bit rate : 17.5 Mb/s
Width : 1 280 pixels
Height : 720 pixels
Display aspect ratio : 16:9
Frame rate mode : Variable
Frame rate : 23.976 (24000/1001) FPS
Minimum frame rate : 23.974 FPS
Maximum frame rate : 23.981 FPS
Color space : YUV
Chroma subsampling : 4:2:0
Bit depth : 8 bits
Scan type : Progressive
Bits/(Pixel*Frame) : 0.145
Stream size : 1.21 GiB (95%)
Encoding settings : cabac=1 / ref=1 / deblock=1:0:0 / analyse=0x3:0x3 / me=dia / subme=1 / psy=1 / psy_rd=1.00:0.00 / mixed_ref=0 / me_range=16 / chroma_me=1 / trellis=0 / 8x8dct=1 / cqm=0 / deadzone=21,11 / fast_pskip=1 / chroma_qp_offset=0 / threads=6 / lookahead_threads=1 / sliced_threads=0 / nr=0 / decimate=1 / interlaced=0 / bluray_compat=0 / constrained_intra=0 / bframes=3 / b_pyramid=2 / b_adapt=1 / b_bias=0 / direct=1 / weightb=1 / open_gop=0 / weightp=1 / keyint=240 / keyint_min=24 / scenecut=40 / intra_refresh=0 / rc_lookahead=0 / rc=abr / mbtree=0 / bitrate=3200 / ratetol=1.0 / qcomp=0.60 / qpmin=0 / qpmax=69 / qpstep=4 / vbv_maxrate=62500 / vbv_bufsize=78125 / nal_hrd=none / ip_ratio=1.40 / pb_ratio=1.30 / aq=1:1.00
Encoded date : UTC 2017-11-15 16:04:38
Tagged date : UTC 2017-11-15 18:23:19
Color range : Limited
Color primaries : BT.709
Transfer characteristics : BT.709
Matrix coefficients : BT.709

Audio
ID : 2
Format : AAC
Format/Info : Advanced Audio Codec
Format profile : LC
Codec ID : 40
Duration : 54 min 17 s
Bit rate mode : Variable
Bit rate : 160 kb/s
Maximum bit rate : 276 kb/s
Channel(s) : 2 channels
Channel positions : Front: L R
Sampling rate : 44.1 kHz
Frame rate : 43.066 FPS (1024 spf)
Compression mode : Lossy
Stream size : 62.1 MiB (5%)
Encoded date : UTC 2017-11-15 18:23:15
Tagged date : UTC 2017-11-15 18:23:19

Text
ID : 3
Format : Timed Text
Codec ID : tx3g
Duration : 53 min 25 s
Bit rate mode : Variable
Bit rate : 95 b/s
Stream size : 37.0 KiB (0%)
Forced : No
Encoded date : UTC 2017-11-15 18:23:19
Tagged date : UTC 2017-11-15 18:23:19


Screenshots:

Terranoa - Inside a Trader's Brain (2015)

Terranoa - Inside a Trader's Brain (2015)

Terranoa - Inside a Trader's Brain (2015)

Terranoa - Inside a Trader's Brain (2015)