Tags
Language
Tags

Inside Facebook: Secrets of a Social Network (2018)

Posted By: notbanned
1080p (FullHD) / WEB-DL
Inside Facebook: Secrets of a Social Network (2018)

Inside Facebook: Secrets of a Social Network (2018)
WEB-DL | 1920x1080 | .MKV/AVC @ 7092 Kbps | 46 min 48 s | 2.39 GiB
Audio: English EAC3 224 kbps, 2 channels | Subs: English
Genre: Documentary

Dispatches goes undercover in the secretive world of the people who decide what can and can't be posted on Facebook, exploring how their decisions are made and the impact they have on users.

General
Unique ID : 172241624528699663314291963599178460971 (0x819487BD7AAA625A8489EFC2B4686F2B)
Complete name : Inside.Facebook.Secrets.of.a.Social.Network.2018.1080p.mkv
Format : Matroska
Format version : Version 4 / Version 2
File size : 2.39 GiB
Duration : 46 min 48 s
Overall bit rate : 7 318 kb/s

Video
ID : 1
Format : AVC
Format/Info : Advanced Video Codec
Format profile : High@L4
Format settings, CABAC : Yes
Format settings, ReFrames : 4 frames
Codec ID : V_MPEG4/ISO/AVC
Duration : 46 min 48 s
Bit rate : 7 092 kb/s
Width : 1 920 pixels
Height : 1 080 pixels
Display aspect ratio : 16:9
Frame rate mode : Constant
Frame rate : 25.000 FPS
Color space : YUV
Chroma subsampling : 4:2:0
Bit depth : 8 bits
Scan type : Progressive
Bits/(Pixel*Frame) : 0.137
Stream size : 2.32 GiB (97%)
Default : Yes
Forced : No
Color range : Limited
Color primaries : BT.709
Transfer characteristics : BT.709
Matrix coefficients : BT.709

Audio
ID : 2
Format : E-AC-3
Format/Info : Enhanced Audio Coding 3
Format settings, Endianness : Big
Codec ID : A_EAC3
Duration : 46 min 48 s
Bit rate mode : Constant
Bit rate : 224 kb/s
Channel(s) : 2 channels
Channel positions : Front: L R
Sampling rate : 48.0 kHz
Frame rate : 187.500 FPS (256 spf)
Compression mode : Lossy
Stream size : 75.0 MiB (3%)
Language : English
Service kind : Complete Main
Default : Yes
Forced : No

Text #1
ID : 3
Format : UTF-8
Codec ID : S_TEXT/UTF8
Codec ID/Info : UTF-8 Plain Text
Duration : 46 min 7 s
Bit rate : 75 b/s
Count of elements : 561
Stream size : 25.4 KiB (0%)
Language : English
Default : No
Forced : No

Text #2
ID : 4
Format : ASS
Codec ID : S_TEXT/ASS
Codec ID/Info : Advanced Sub Station Alpha
Duration : 5 min 5 s
Bit rate : 2 b/s
Count of elements : 1
Compression mode : Lossless
Stream size : 89.0 Bytes (0%)
Default : Yes
Forced : Yes


Screenshots:

Inside Facebook: Secrets of a Social Network (2018)

Inside Facebook: Secrets of a Social Network (2018)

Inside Facebook: Secrets of a Social Network (2018)

Inside Facebook: Secrets of a Social Network (2018)