Tags
Language
Tags

BBC - Inside the Cage: The Rise of Female Fighters (2019)

Posted By: notbanned
1080p (FullHD) / HDTV
BBC - Inside the Cage: The Rise of Female Fighters (2019)

BBC - Inside the Cage: The Rise of Female Fighters (2019)
HDTV | 1920x1080 | .MKV/AVC @ 3760 Kbps | 40 min 30 s | 1.14 GiB
Audio: English AC3 192 kbps, 2 channels | Subs: English
Genre: Documentary

Annie Price meets the women fighting to the top in mixed martial arts or MMA - one of the fastest growing sports in Britain. Molly McCann is the first English woman to win in the top league, the UFC or Ultimate Fighting Championship, and invites Price to train and hang out with her as she prepares for her biggest fight yet, in the USA. 18-year-old Shanelle Dyer fights at amateur level and sees MMA as the ticket to big earnings and a way to escape the street violence around her west London family home. Cory McKenna is 19, a straight-A student turned full-time fighter, now hotly tipped for the top.

Training and travelling with Britain’s brightest MMA stars, Price finds out what drives them and whether the risks are really worth the rewards.

General
Complete name : Inside.The.Cage.The.Rise.Of.Female.Fighters.2019.1080p.mkv
Format : Matroska
Format version : Version 4 / Version 2
File size : 1.14 GiB
Duration : 40 min 30 s
Overall bit rate : 4 032 kb/s

Video
ID : 1
Format : AVC
Format/Info : Advanced Video Codec
Format profile : High@L4
Format settings, CABAC : Yes
Format settings, ReFrames : 4 frames
Codec ID : V_MPEG4/ISO/AVC
Duration : 40 min 30 s
Bit rate : 3 760 kb/s
Width : 1 920 pixels
Height : 1 080 pixels
Display aspect ratio : 16:9
Frame rate mode : Constant
Frame rate : 25.000 FPS
Standard : Component
Color space : YUV
Chroma subsampling : 4:2:0
Bit depth : 8 bits
Scan type : MBAFF
Bits/(Pixel*Frame) : 0.073
Stream size : 1.06 GiB (93%)
Language : English
Default : Yes
Forced : No
Color range : Limited
Color primaries : BT.709
Transfer characteristics : BT.709
Matrix coefficients : BT.709

Audio
ID : 2
Format : AC-3
Format/Info : Audio Coding 3
Format settings, Endianness : Big
Codec ID : A_AC3
Duration : 40 min 30 s
Bit rate mode : Constant
Bit rate : 192 kb/s
Channel(s) : 2 channels
Channel positions : Front: L R
Sampling rate : 48.0 kHz
Frame rate : 31.250 FPS (1536 spf)
Bit depth : 16 bits
Compression mode : Lossy
Stream size : 55.6 MiB (5%)
Language : English
Service kind : Complete Main
Default : Yes
Forced : No

Text
ID : 3
Format : UTF-8
Codec ID : S_TEXT/UTF8
Codec ID/Info : UTF-8 Plain Text
Language : English
Default : No
Forced : No


Screenshots:

BBC - Inside the Cage: The Rise of Female Fighters (2019)

BBC - Inside the Cage: The Rise of Female Fighters (2019)

BBC - Inside the Cage: The Rise of Female Fighters (2019)

BBC - Inside the Cage: The Rise of Female Fighters (2019)