PBS Frontline - Inside Obama's Presidency (2013)

Posted By: vivid23
PBS Frontline - Inside Obama's Presidency (2013)

PBS Frontline - Inside Obama's Presidency (2013)
PDTV | 848x480 | MKV/x264 @ 775 Kbps | 55mn | Audio: English AAC 128 kbps, 2 channels | Subs: None | 361 MB
Genre: Documentary

As Barack Obama is sworn in for his second term, FRONTLINE takes a probing look at the first four years of his presidency. With inside accounts from his battles with his Republican opponents over health care and the economy to his dramatic expansion of targeted killings of enemies, FRONTLINE examines the president's key decisions and the experiences that will inform his second term.

More info

Video
ID : 1
Format : AVC
Format/Info : Advanced Video Codec
Format profile : High@L3.1
Format settings, CABAC : Yes
Format settings, ReFrames : 6 frames
Codec ID : avc1
Codec ID/Info : Advanced Video Coding
Duration : 55mn 39s
Bit rate mode : Variable
Bit rate : 775 Kbps
Maximum bit rate : 5 346 Kbps
Width : 848 pixels
Height : 480 pixels
Display aspect ratio : 16:9
Frame rate mode : Constant
Frame rate : 29.970 fps
Color space : YUV
Chroma subsampling : 4:2:0
Bit depth : 8 bits
Scan type : Progressive
Bits/(Pixel*Frame) : 0.064
Stream size : 308 MiB (85%)
Writing library : x264 core 120
Encoding settings : cabac=1 / ref=6 / deblock=1:0:0 / analyse=0x3:0x113 / me=umh / subme=10 / psy=1 / psy_rd=2.00:1.00 / mixed_ref=1 / me_range=24 / chroma_me=1 / trellis=2 / 8x8dct=1 / cqm=0 / deadzone=21,11 / fast_pskip=1 / chroma_qp_offset=-4 / threads=3 / sliced_threads=0 / nr=0 / decimate=1 / interlaced=0 / bluray_compat=0 / constrained_intra=0 / bframes=9 / b_pyramid=2 / b_adapt=2 / b_bias=0 / direct=1 / weightb=1 / open_gop=0 / weightp=2 / keyint=300 / keyint_min=30 / scenecut=40 / intra_refresh=0 / rc_lookahead=50 / rc=crf / mbtree=1 / crf=22.0 / qcomp=0.60 / qpmin=3 / qpmax=69 / qpstep=4 / ip_ratio=1.40 / aq=1:1.00
Tagged date : UTC 2013-01-16 22:35:41
Color primaries : BT.709-5, BT.1361, IEC 61966-2-4, SMPTE RP177
Transfer characteristics : BT.709-5, BT.1361
Matrix coefficients : BT.709-5, BT.1361, IEC 61966-2-4 709, SMPTE RP177

Audio
ID : 2
Format : AAC
Format/Info : Advanced Audio Codec
Format version : Version 4
Format profile : LC
Format settings, SBR : No
Codec ID : 40
Duration : 55mn 39s
Bit rate mode : Variable
Bit rate : 129 Kbps
Maximum bit rate : 188 Kbps
Channel(s) : 2 channels
Channel positions : Front: L R
Sampling rate : 48.0 KHz
Compression mode : Lossy
Stream size : 51.4 MiB (14%)
Encoded date : UTC 2013-01-16 22:35:40
Tagged date : UTC 2013-01-16 22:35:41


PBS Frontline - Inside Obama's Presidency (2013)

PBS Frontline - Inside Obama's Presidency (2013)


Feel free to contact me when links are dead