Insight - Gut Feeling (2017)

Posted By: notbanned
Insight - Gut Feeling (2017)

Insight - Gut Feeling (2017)
HDTV | 1920x1080 | .MKV/AVC @ 4622 Kbps | 52mn 46s | 1.81 GiB
Audio: English MP2 192 kbps, 2 channels | Subs: None
Genre: Documentary

Following the release of his book on the gut, Dr Michael Mosley returns to Insight for a discussion with fellow experts and ordinary Australians about how the gut can play an integral role in our overall physical and mental health.Increasingly, research is shedding light on the previously mysterious world of the gut and the 1-2 kilograms of microbes that live there, forming each person's unique microbiome , the genetic ecosystem of bacteria, viruses, fungi and other organisms that lives inside and on our bodies from birth. This week's Insight tackles the ground-breaking science and personal stories around the gut's potential to change our lives.


General
Unique ID : 314101451626399185823098794277734167243 (0xEC4DBD37613811C10FBD0FFA494BB2CB)
Complete name : Insight.Gut.Feeling.HDTV.1080p.mkv
Format : Matroska
Format version : Version 2
File size : 1.81 GiB
Duration : 52 min 46 s
Overall bit rate : 4 911 kb/s

Video
ID : 1
Format : AVC
Format/Info : Advanced Video Codec
Format profile : High@L4
Format settings, CABAC : Yes
Format settings, ReFrames : 4 frames
Codec ID : V_MPEG4/ISO/AVC
Duration : 52 min 46 s
Bit rate : 4 622 kb/s
Width : 1 920 pixels
Height : 1 080 pixels
Display aspect ratio : 16:9
Frame rate mode : Constant
Frame rate : 25.000 FPS
Standard : Component
Color space : YUV
Chroma subsampling : 4:2:0
Bit depth : 8 bits
Scan type : MBAFF
Scan type, store method : Interleaved fields
Scan order : Top Field First
Bits/(Pixel*Frame) : 0.089
Stream size : 1.70 GiB (94%)
Default : Yes
Forced : No
Color range : Limited
Color primaries : BT.709
Transfer characteristics : BT.709
Matrix coefficients : BT.709

Audio
ID : 2
Format : MPEG Audio
Format version : Version 1
Format profile : Layer 2
Codec ID : A_MPEG/L2
Codec ID/Hint : MP2
Duration : 52 min 46 s
Bit rate mode : Constant
Bit rate : 192 kb/s
Channel(s) : 2 channels
Sampling rate : 48.0 kHz
Compression mode : Lossy
Stream size : 72.5 MiB (4%)
Language : English
Default : Yes
Forced : No


Screenshots:

Insight - Gut Feeling (2017)

Insight - Gut Feeling (2017)

Insight - Gut Feeling (2017)

Insight - Gut Feeling (2017)