Tags
Language
Tags

BBC - Is It Safe to be Gay in the UK? (2017)

Posted By: Tutorial
BBC - Is It Safe to be Gay in the UK? (2017)

BBC - Is It Safe to be Gay in the UK? (2017)
HDTV | 1280 x 720 | .MP4/AVC @ 2350 Kbps | 59 min 5 s | 1.04 GB
Audio: English AAC 160 Kbps, 2 channels | Subs: English
Genre: Documentary

With homophobic hate crime a daily occurrence and on the rise, this film takes a look at the issue, hearing from the victims, their families and the police. What makes someone attack another person because of their sexuality? How do victims deal with these unprovoked assaults?
To explore this ongoing issue, the documentary visits Alex and Becky as they prepare for a looming court date, hoping to get justice for an unprovoked attack on them in the streets of Croydon. It reveals the pressure heaped on Dain and James's relationship, a year after they were viciously attacked in Brighton, leaving Dain with a broken eye socket and both of them with multiple inuries. Connor discusses the ongoing health implications stemming from the brutal attack on him when his flatmate took a hammer to his head as Connor lay sleeping. And Jenny talks about her brother Ian, who died of injuries sustained in a homophobic attack in the centre of London.
We also hear from a chorus of other LGBT people, who describe the attacks on themselves and recite a litany of the abuse that they have received, simply for being who they are.

General
Complete name : BBC.Is.It.Safe.To.Be.Gay.in.The.UK.mp4
Format : MPEG-4
Format profile : Base Media
Codec ID : isom (isom)
File size : 1.04 GiB
Duration : 59 min 5 s
Overall bit rate mode : Variable
Overall bit rate : 2 514 kb/s
Encoded date : UTC 2017-08-02 14:06:19
Tagged date : UTC 2017-08-02 14:06:19
Writing application : My MP4Box GUI 0.6.0.6

Video
ID : 1
Format : AVC
Format/Info : Advanced Video Codec
Format profile : High@L4.1
Format settings, CABAC : Yes
Format settings, ReFrames : 4 frames
Codec ID : avc1
Codec ID/Info : Advanced Video Coding
Duration : 59 min 5 s
Bit rate : 2 350 kb/s
Maximum bit rate : 14.7 Mb/s
Width : 1 280 pixels
Height : 720 pixels
Display aspect ratio : 16:9
Frame rate mode : Constant
Frame rate : 25.000 FPS
Color space : YUV
Chroma subsampling : 4:2:0
Bit depth : 8 bits
Scan type : Progressive
Bits/(Pixel*Frame) : 0.102
Stream size : 993 MiB (93%)
Title : BBC.Is.It.Safe.To.Be.Gay.in.The.UK.720p.HDTV.x264.AAC
Writing library : x264 core 130 r2273 b3065e6
Encoding settings : cabac=1 / ref=1 / deblock=1:0:0 / analyse=0x3:0x3 / me=dia / subme=1 / psy=1 / psy_rd=1.00:0.00 / mixed_ref=0 / me_range=16 / chroma_me=1 / trellis=0 / 8x8dct=1 / cqm=0 / deadzone=21,11 / fast_pskip=1 / chroma_qp_offset=0 / threads=6 / lookahead_threads=1 / sliced_threads=0 / nr=0 / decimate=1 / interlaced=0 / bluray_compat=0 / constrained_intra=0 / bframes=3 / b_pyramid=2 / b_adapt=1 / b_bias=0 / direct=1 / weightb=1 / open_gop=0 / weightp=1 / keyint=250 / keyint_min=25 / scenecut=40 / intra_refresh=0 / rc_lookahead=0 / rc=crf / mbtree=0 / crf=20.0 / qcomp=0.60 / qpmin=0 / qpmax=69 / qpstep=4 / vbv_maxrate=62500 / vbv_bufsize=78125 / crf_max=0.0 / nal_hrd=none / ip_ratio=1.40 / pb_ratio=1.30 / aq=1:1.00
Encoded date : UTC 2017-08-02 13:06:15
Tagged date : UTC 2017-08-02 14:06:39
Color range : Limited
Color primaries : BT.709
Transfer characteristics : BT.709
Matrix coefficients : BT.709

Audio
ID : 2
Format : AAC
Format/Info : Advanced Audio Codec
Format profile : LC
Codec ID : 40
Duration : 59 min 5 s
Bit rate mode : Variable
Bit rate : 160 kb/s
Maximum bit rate : 241 kb/s
Channel(s) : 2 channels
Channel positions : Front: L R
Sampling rate : 48.0 kHz
Frame rate : 46.875 FPS (1024 spf)
Compression mode : Lossy
Stream size : 67.6 MiB (6%)
Title : BBC.Is.It.Safe.To.Be.Gay.in.The.UK.720p.HDTV.x264.AAC
Language : English
Encoded date : UTC 2017-08-02 14:06:34
Tagged date : UTC 2017-08-02 14:06:39

Text
ID : 3
Format : Timed Text
Codec ID : tx3g
Duration : 58 min 33 s
Bit rate mode : Variable
Bit rate : 188 b/s
Stream size : 80.7 KiB (0%)
Title : BBC.Is.It.Safe.To.Be.Gay.in.The.UK.720p.HDTV.x264.AAC.
Forced : No
Encoded date : UTC 2017-08-02 14:06:39
Tagged date : UTC 2017-08-02 14:06:39
Screenshots

BBC - Is It Safe to be Gay in the UK? (2017)

BBC - Is It Safe to be Gay in the UK? (2017)

BBC - Is It Safe to be Gay in the UK? (2017)

Welcome to my blog - daily update!