Tags
Language
Tags

Isolerad (2010)

Posted By:
1080p (FullHD) / BDRip IMDb
Isolerad (2010)

Isolerad (2010)
BDRip | MKV | 1920x1080 | English | H264 @ 9538 kbps | DTS | 1 h 16 min | 6.85 GiB
Subtitles: English, Dutch
Genre: Horror, Thriller, Mystery

Den lite udda läkarstudenten Frank träffar grannen ovanför och hennes svartsjuke pojkvän och börjar misstänka att allt inte står rätt till. Franks liv utvecklas till en klaustrofobisk mardröm och han blir alltmer rädd för att lämna lägenheten.

Isolerad.2010.Swedish.1080p.BluRay.x264-DKM.mkv (6.8 GB)



General
Unique ID : 163886685624037008810109322871970108468 (0x7B4B6D72CD0068554728119842029434)
Complete name : ./Isolerad.2010.Swedish.1080p.BluRay.x264-DKM.mkv
Format : Matroska
Format version : Version 4 / Version 2
File size : 6.85 GiB
Duration : 1 h 16 min
Overall bit rate : 12.9 Mb/s
Movie name : title_t00
Encoded date : UTC 2019-12-15 22:23:56
Writing application : mkvmerge v41.0.0 ('Smarra') 64-bit
Writing library : libebml v1.3.9 + libmatroska v1.5.2

Video
ID : 3
Format : AVC
Format/Info : Advanced Video Codec
Format profile : High@L4
Format settings : CABAC / 1 Ref Frames
Format settings, CABAC : Yes
Format settings, RefFrames : 1 frame
Format settings, GOP : M=1, N=25
Codec ID : V_MPEG4/ISO/AVC
Duration : 1 h 16 min
Bit rate mode : Constant
Bit rate : 9 539 kb/s
Width : 1 920 pixels
Height : 1 080 pixels
Display aspect ratio : 16:9
Frame rate mode : Constant
Frame rate : 25.000 FPS
Color space : YUV
Chroma subsampling : 4:2:0
Bit depth : 8 bits
Scan type : Progressive
Bits/(Pixel*Frame) : 0.184
Stream size : 4.99 GiB (73%)
Title : De Kerstmannen
Language : English
Default : Yes
Forced : No
Color range : Limited
Color primaries : BT.709
Transfer characteristics : BT.709
Matrix coefficients : BT.709

Audio
ID : 4
Format : DTS
Format/Info : Digital Theater Systems
Format profile : MA / Core
Mode : 16
Format settings, Endianness : Big
Codec ID : A_DTS
Duration : 1 h 16 min
Bit rate mode : Variable / Constant
Bit rate : 3 491 kb/s / 1 509 kb/s
Channel(s) : 6 channels
Channel positions : Front: L C R, Side: L R, LFE
Sampling rate : 48.0 kHz
Frame rate : 93.750 FPS (512 SPF)
Bit depth : 24 bits
Compression mode : Lossless / Lossy
Stream size : 1.86 GiB (27%)
Title : Swedish
Default : Yes
Forced : No

Text #1
ID : 1
Format : UTF-8
Codec ID : S_TEXT/UTF8
Codec ID/Info : UTF-8 Plain Text
Duration : 1 h 11 min
Bit rate : 22 b/s
Count of elements : 416
Stream size : 12.0 KiB (0%)
Title : De Kerstmannen 2019
Language : Dutch
Default : Yes
Forced : No

Text #2
ID : 2
Format : UTF-8
Codec ID : S_TEXT/UTF8
Codec ID/Info : UTF-8 Plain Text
Duration : 1 h 11 min
Bit rate : 21 b/s
Count of elements : 417
Stream size : 11.2 KiB (0%)
Title : The Santas 2019
Language : English
Default : No
Forced : No

Menu
00:00:00.000 : en:Chapter 01
00:07:30.320 : en:Chapter 02
00:16:44.960 : en:Chapter 03
00:24:19.880 : en:Chapter 04
00:29:30.040 : en:Chapter 05
00:36:47.199 : en:Chapter 06
00:47:55.160 : en:Chapter 07
00:55:43.320 : en:Chapter 08
01:02:13.600 : en:Chapter 09





Isolerad (2010)


Isolerad (2010)


Isolerad (2010)


Isolerad (2010)


Isolerad (2010)