Tags
Language
Tags

It Started As a Joke (2019)

Posted By: Tavaz
1080p (FullHD) / BDRip IMDb
It Started As a Joke (2019)

It Started As a Joke (2019)
BDRip | MKV | 1920x1080 | English | H264 @ 5760 kbps | AC-3 @ 448 kbps | 1 h 16 min | 3.30 GiB
Subtitles: Italiano
Genre: Documentary

A look at the decade-long run of the Eugene Mirman Comedy Festival in Brooklyn, the alternative comedy scene in New York, and Eugene's personal life.

4629bc8c566e4ff9b7c7175032f4e8d9.mkv (3.3 GB)



General
Unique ID : 220760898025708129973802217699350859252 (0xA615009DA9D5BA942151D4901C0ACDF4)
Complete name : ./4629bc8c566e4ff9b7c7175032f4e8d9.mkv
Format : Matroska
Format version : Version 4 / Version 2
File size : 3.30 GiB
Duration : 1 h 16 min
Overall bit rate : 6 199 kb/s
Movie name : It.Started.As.a.Joke.2019.1080p.BluRay.x264-nikt0
Encoded date : UTC 2020-04-18 22:45:04 / UTC 2020-04-18T02:34:54Z
Writing application : mkvmerge v38.0.0 ('The Silent Type') 64-bit
Writing library : libebml v1.3.9 + libmatroska v1.5.2 / Lavf57.7.2

Video
ID : 1
Format : AVC
Format/Info : Advanced Video Codec
Format profile : High@L4
Format settings : CABAC / 4 Ref Frames
Format settings, CABAC : Yes
Format settings, RefFrames : 4 frames
Codec ID : V_MPEG4/ISO/AVC
Duration : 1 h 16 min
Bit rate : 5 760 kb/s
Width : 1 920 pixels
Height : 1 080 pixels
Display aspect ratio : 16:9
Frame rate mode : Constant
Frame rate : 23.976 (24000/1001) FPS
Color space : YUV
Chroma subsampling : 4:2:0
Bit depth : 8 bits
Scan type : Progressive
Bits/(Pixel*Frame) : 0.116
Stream size : 3.00 GiB (91%)
Writing library : x264 core 155 r2901 7d0ff22
Encoding settings : cabac=1 / ref=4 / deblock=1:-3:-3 / analyse=0x3:0x133 / me=umh / subme=9 / psy=1 / psy_rd=1.10:0.25 / mixed_ref=1 / me_range=32 / chroma_me=1 / trellis=2 / 8x8dct=1 / cqm=0 / deadzone=6,6 / fast_pskip=1 / chroma_qp_offset=-4 / threads=34 / lookahead_threads=3 / sliced_threads=0 / nr=0 / decimate=1 / interlaced=0 / bluray_compat=0 / constrained_intra=0 / bframes=6 / b_pyramid=2 / b_adapt=2 / b_bias=0 / direct=3 / weightb=1 / open_gop=0 / weightp=2 / keyint=240 / keyint_min=24 / scenecut=40 / intra_refresh=0 / rc_lookahead=40 / rc=2pass / mbtree=1 / bitrate=5760 / ratetol=1.0 / qcomp=0.60 / qpmin=0 / qpmax=69 / qpstep=4 / cplxblur=20.0 / qblur=0.5 / vbv_maxrate=20000 / vbv_bufsize=25000 / nal_hrd=none / filler=0 / ip_ratio=1.40 / aq=1:1.00
Default : Yes
Forced : No
Color range : Limited
Color primaries : BT.709
Transfer characteristics : BT.709
Matrix coefficients : BT.709
Statistics Tags Issue : mkvmerge v38.0.0 ('The Silent Type') 64-bit 2020-04-18 22:45:04 / mkvmerge v38.0.0 ('The Silent Type') 64-bit 2020-04-18 22:45:04 / UTC 2020-04-18T02:34:54Z
FromStats_BitRate : 5749385
FromStats_Duration : 01:16:14.195000000
FromStats_FrameCount : 109671
FromStats_StreamSize : 3287351486

Audio
ID : 2
Format : AC-3
Format/Info : Audio Coding 3
Format settings, Endianness : Big
Codec ID : A_AC3
Duration : 1 h 16 min
Bit rate mode : Constant
Bit rate : 448 kb/s
Channel(s) : 6 channels
Channel positions : Front: L C R, Side: L R, LFE
Sampling rate : 48.0 kHz
Frame rate : 31.250 FPS (1536 SPF)
Bit depth : 16 bits
Compression mode : Lossy
Stream size : 244 MiB (7%)
Title : Surround
Language : English
Service kind : Complete Main
Default : Yes
Forced : No
Statistics Tags Issue : mkvmerge v38.0.0 ('The Silent Type') 64-bit 2020-04-18 22:45:04 / mkvmerge v38.0.0 ('The Silent Type') 64-bit 2020-04-18 22:45:04 / UTC 2020-04-18T02:34:54Z
FromStats_BitRate : 448000
FromStats_Duration : 01:16:14.176000000
FromStats_FrameCount : 142943
FromStats_StreamSize : 256153856

Text
ID : 3
Format : UTF-8
Codec ID : S_TEXT/UTF8
Codec ID/Info : UTF-8 Plain Text
Language : Italian
Default : Yes
Forced : No
Statistics Tags Issue : mkvmerge v38.0.0 ('The Silent Type') 64-bit 2020-04-18 22:45:04 / mkvmerge v38.0.0 ('The Silent Type') 64-bit 2020-04-18 22:45:04 / UTC 2020-04-18T02:34:54Z
FromStats_BitRate : 106
FromStats_Duration : 01:16:00.515000000
FromStats_FrameCount : 1156
FromStats_StreamSize : 60539

Menu
00:00:00.000 : :Chapter 1
00:09:15.930 : :Chapter 2
00:20:51.208 : :Chapter 3
00:31:11.161 : :Chapter 4
00:39:50.305 : :Chapter 5
00:51:10.651 : :Chapter 6
01:00:47.978 : :Chapter 7
01:10:18.965 : :Chapter 8
01:14:11.405 : :Chapter 9





It Started As a Joke (2019)


It Started As a Joke (2019)


It Started As a Joke (2019)


It Started As a Joke (2019)


It Started As a Joke (2019)