It Happened One Valentine's (2017)

Posted By: JohnSmith
It Happened One Valentine's (2017)

It Happened One Valentine's (2017)
HDRip | AVI / XviD@1924 kb/s | 720x304 | 1h 25mn | 1.39 GB | English: AC3, 384 kb/s (6 ch)
Genre: Comedy | Romance

When ambitious reporter Allie Rusch is recruited by vindictive music manager Vivian Cartwright to play cupid to famous pop musicians Caleb Greene and Carson Peet in return for an exclusive story over Valentine's weekend, Allie soon realizes Caleb has his sights set on her. Now, torn between her big career move and her growing feelings for Caleb, Allie is left to question whether she can coerce Caleb into something his heart does not desire, or if she should fall in love and make him her very own Valentine.




General
Format : AVI
Format/Info : Audio Video Interleave
File size : 1.39 GiB
Duration : 1 h 25 min
Overall bit rate : 2 317 kb/s
Writing library : VirtualDub build 32593/release

Video
ID : 0
Format : MPEG-4 Visual
Format profile : Advanced Simple@L5
Format settings, BVOP : 2
Format settings, QPel : No
Format settings, GMC : No warppoints
Format settings, Matrix : Default (H.263)
Muxing mode : Packed bitstream
Codec ID : XVID
Codec ID/Hint : XviD
Duration : 1 h 25 min
Bit rate : 1 924 kb/s
Width : 720 pixels
Height : 304 pixels
Display aspect ratio : 2.35:1
Frame rate : 23.976 (24000/1001) FPS
Color space : YUV
Chroma subsampling : 4:2:0
Bit depth : 8 bits
Scan type : Progressive
Compression mode : Lossy
Bits/(Pixel*Frame) : 0.367
Stream size : 1.16 GiB (83%)
Writing library : XviD 66

Audio
ID : 1
Format : AC-3
Format/Info : Audio Coding 3
Mode extension : CM (complete main)
Format settings, Endianness : Big
Codec ID : 2000
Duration : 1 h 25 min
Bit rate mode : Constant
Bit rate : 384 kb/s
Channel(s) : 6 channels
Channel positions : Front: L C R, Side: L R, LFE
Sampling rate : 48.0 kHz
Frame rate : 31.250 FPS (1536 spf)
Bit depth : 16 bits
Compression mode : Lossy
Stream size : 236 MiB (17%)
Alignment : Aligned on interleaves
Interleave, duration : 42 ms (1.00 video frame)
Interleave, preload duratio : 512 ms




Screenshots

It Happened One Valentine's (2017)

It Happened One Valentine's (2017)

It Happened One Valentine's (2017)