Ivans childhood / Ivanovo detstvo / Иваново детство (1962)

Posted By: RSU75
Ivans childhood / Ivanovo detstvo / Иваново детство (1962)

Ivans childhood / Ivanovo detstvo / Иваново детство (1962)
BDRip | MKV | AVC 1440x1080, ~ 11.0 Mbps | 1hr 35mn | 7.62 GB
Russian: AC3, 6 ch, 448 kbps
Subtitles: English, Russian
Genre: Drama | War | 2 wins
IMDB Rating: 8.1/10 (9.895 votes)
Кинопоиск 8.230/10 (6.488 votes)


Director: Andrei Tarkovsky
Writers: Vladimir Bogomolov
Stars: Nikolai Burlyaev, Valentin Zubkov, E. Zharikov, S. Krylov, Nikolai Grinko, V. Malyavina, Irina Tarkovskaya

The debut feature from the great Andrei Tarkovsky, Ivan’s Childhood is an evocative, poetic journey through the shadows and shards of one boy’s war-torn youth. Moving back and forth between the traumatic realities of WWII and the serene moments of family life before the conflict began, Tarkovsky’s film remains one of the most jarring and unforgettable depictions of the impact of violence on children in wartime.



Format : Matroska
File size : 7.62 GiB
Duration : 1h 35mn
Overall bit rate : 11.5 Mbps
Encoded date : UTC 2013-01-20 07:03:01
Writing application : mkvmerge v5.2.0 ('I can't explain') built on Dec 18 2011 18:12:03
Writing library : libebml v1.2.3 + libmatroska v1.3.0

Video
ID : 1
Format : AVC
Format/Info : Advanced Video Codec
Format profile : High@L4.1
Format settings, CABAC : Yes
Format settings, ReFrames : 4 frames
Muxing mode : Header stripping
Codec ID : V_MPEG4/ISO/AVC
Duration : 1h 35mn
Bit rate : 11.0 Mbps
Width : 1 440 pixels
Height : 1 080 pixels
Display aspect ratio : 4:3
Frame rate : 23.976 fps
Color space : YUV
Chroma subsampling : 4:2:0
Bit depth : 8 bits
Scan type : Progressive
Bits/(Pixel*Frame) : 0.295
Stream size : 7.17 GiB (94%)
Writing library : x264 core 129 r2230 1cffe9f
Encoding settings : cabac=1 / ref=4 / deblock=1:-3:-3 / analyse=0x3:0x133 / me=umh / subme=7 / psy=1 / psy_rd=1.00:0.15 / mixed_ref=1 / me_range=32 / chroma_me=1 / trellis=1 / 8x8dct=1 / cqm=0 / deadzone=21,11 / fast_pskip=1 / chroma_qp_offset=-3 / threads=10 / lookahead_threads=1 / sliced_threads=0 / nr=0 / decimate=1 / interlaced=0 / bluray_compat=0 / constrained_intra=0 / bframes=4 / b_pyramid=2 / b_adapt=2 / b_bias=0 / direct=1 / weightb=1 / open_gop=0 / weightp=2 / keyint=240 / keyint_min=23 / scenecut=40 / intra_refresh=0 / rc_lookahead=40 / rc=2pass / mbtree=1 / bitrate=11000 / ratetol=2.0 / qcomp=0.60 / qpmin=10 / qpmax=69 / qpstep=4 / cplxblur=20.0 / qblur=0.5 / vbv_maxrate=40000 / vbv_bufsize=20000 / nal_hrd=none / ip_ratio=1.40 / aq=1:1.00
Language : Russian

Audio
ID : 2
Format : AC-3
Format/Info : Audio Coding 3
Mode extension : CM (complete main)
Muxing mode : Header stripping
Codec ID : A_AC3
Duration : 1h 35mn
Bit rate mode : Constant
Bit rate : 448 Kbps
Channel(s) : 6 channels
Channel positions : Front: L C R, Side: L R, LFE
Sampling rate : 48.0 KHz
Bit depth : 16 bits
Stream size : 305 MiB (4%)
Language : Russian

Text #1
ID : 3
Format : UTF-8
Codec ID : S_TEXT/UTF8
Codec ID/Info : UTF-8 Plain Text
Language : English

Text #2
ID : 4
Format : UTF-8
Codec ID : S_TEXT/UTF8
Codec ID/Info : UTF-8 Plain Text
Language : Russian

Menu
00:00:00.000 : :Chapter 01
00:06:08.159 : :Chapter 02
00:14:59.565 : :Chapter 03
00:21:38.588 : :Chapter 04
00:25:02.459 : :Chapter 05
00:31:59.125 : :Chapter 06
00:40:33.722 : :Chapter 07
00:44:53.065 : :Chapter 08
00:51:45.018 : :Chapter 09
00:57:37.620 : :Chapter 10
01:00:01.514 : :Chapter 11
01:05:13.200 : :Chapter 12
01:10:44.156 : :Chapter 13
01:20:32.577 : :Chapter 14
01:23:05.814 : :Chapter 15
01:27:01.674 : :Chapter 16
01:32:01.849 : :Chapter 17


Subtitles in other languages: subtitleseeker.com


Название: Иваново детство
Год выпуска: 1962
Жанр: Военный, драма
Выпущено: СССР (Россия), Мосфильм
Режиссер: Андрей Тарковский
В ролях: Николай Бурляев, Валентин Зубков, Валентина Малявина, Степан Крылов, Николай Гринько, Дмитрий Милютенко, Ирина Тарковская, Иван Савкин, Владимир Маренков, Евгений Жариков, Андрей Кончаловский, Владимир Макаренков, Вера Митурич

О фильме: Трагическая история 12-летнего разведчика партизанского отряда, чье сердце переполнено ненавистью к врагу потрясает прежде всего ярким художественным столкновением двух миров: жестокого и реального мира войны - и светлого, поэтического мира мальчишеских снов, которым не суждено сбыться…

Качество: BDRip (1080p)
Видео: MPEG-4 AVC, ~11000 Кбит/с, 1440x1080
Аудио: Русский (AC3, 6 ch, 448 Кбит/с)
Продолжительность: 01:35:13
Субтитры: Английские, русские
Размер: 7.62 ГБ


Screenshots (click to enlarge to original size):

Ivans childhood / Ivanovo detstvo / Иваново детство (1962)

Ivans childhood / Ivanovo detstvo / Иваново детство (1962)

Ivans childhood / Ivanovo detstvo / Иваново детство (1962)

Ivans childhood / Ivanovo detstvo / Иваново детство (1962)

Ivans childhood / Ivanovo detstvo / Иваново детство (1962)



–––––––––––––––––––––––––––––––––––––––-
>>> Other format <<<
–––––––––––––––––––––––––––––––––––––––-
>>> Visit Blog RSU75 Here <<<
–––––––––––––––––––––––––––––––––––––––-
Download:





5% Recovery. Parts of archives are compatible. No password