Tags
Language
Tags

Jagten / The Hunt (2012)

Posted By: Tavaz
SD / BDRip IMDb
Jagten / The Hunt (2012)

Jagten / The Hunt (2012)
BDRip | MKV | 1024x436 | Danish | H264 @ 2671 kbps | AC-3 @ 448 kbps | 1 h 55 min | 2.53 GiB
Subtitles: Spanish, English
Genre: Drama

A teacher lives a lonely life, all the while struggling over his son’s custody. His life slowly gets better as he finds love and receives good news from his son, but his new luck is about to be brutally shattered by an innocent little lie.

b282933752f54c43a534307210799006.mkv (2.5 GB)



General
Unique ID : 269821540320787009322846379965121528711 (0xCAFDBD08BAB60DC3AF111BAE607B8387)
Complete name : ./b282933752f54c43a534307210799006.mkv
Format : Matroska
Format version : Version 2
File size : 2.53 GiB
Duration : 1 h 55 min
Overall bit rate : 3 139 kb/s
Encoded date : UTC 2018-02-12 15:12:06
Writing application : mkvmerge v19.0.0 ('Brave Captain') 64-bit
Writing library : libebml v1.3.5 + libmatroska v1.4.8

Video
ID : 1
Format : AVC
Format/Info : Advanced Video Codec
Format profile : High@L4
Format settings : CABAC / 16 Ref Frames
Format settings, CABAC : Yes
Format settings, RefFrames : 16 frames
Codec ID : V_MPEG4/ISO/AVC
Duration : 1 h 55 min
Bit rate : 2 671 kb/s
Width : 1 024 pixels
Height : 436 pixels
Display aspect ratio : 2.35:1
Frame rate mode : Constant
Frame rate : 23.976 (24000/1001) FPS
Color space : YUV
Chroma subsampling : 4:2:0
Bit depth : 8 bits
Scan type : Progressive
Bits/(Pixel*Frame) : 0.250
Stream size : 2.16 GiB (85%)
Writing library : x264 core 152 r2851 ba24899
Encoding settings : cabac=1 / ref=16 / deblock=1:-3:-3 / analyse=0x3:0x133 / me=umh / subme=10 / psy=1 / psy_rd=1.00:0.00 / mixed_ref=1 / me_range=32 / chroma_me=1 / trellis=2 / 8x8dct=1 / cqm=0 / deadzone=21,11 / fast_pskip=0 / chroma_qp_offset=-2 / threads=2 / lookahead_threads=1 / sliced_threads=0 / nr=0 / decimate=0 / interlaced=0 / bluray_compat=0 / constrained_intra=0 / bframes=16 / b_pyramid=2 / b_adapt=2 / b_bias=0 / direct=3 / weightb=1 / open_gop=0 / weightp=2 / keyint=250 / keyint_min=23 / scenecut=40 / intra_refresh=0 / rc=crf / mbtree=0 / crf=16.0 / qcomp=0.60 / qpmin=0 / qpmax=69 / qpstep=4 / ip_ratio=1.30 / pb_ratio=1.20 / aq=3:0.80
Language : English
Default : Yes
Forced : No
Color range : Limited
Color primaries : BT.709
Transfer characteristics : BT.709
Matrix coefficients : BT.709

Audio
ID : 2
Format : AC-3
Format/Info : Audio Coding 3
Format settings, Endianness : Big
Codec ID : A_AC3
Duration : 1 h 55 min
Bit rate mode : Constant
Bit rate : 448 kb/s
Channel(s) : 6 channels
Channel positions : Front: L C R, Side: L R, LFE
Sampling rate : 48.0 kHz
Frame rate : 31.250 FPS (1536 SPF)
Bit depth : 16 bits
Compression mode : Lossy
Stream size : 370 MiB (14%)
Language : Danish
Service kind : Complete Main
Default : Yes
Forced : No

Text #1
ID : 3
Format : UTF-8
Codec ID : S_TEXT/UTF8
Codec ID/Info : UTF-8 Plain Text
Duration : 1 h 55 min
Bit rate : 55 b/s
Count of elements : 1405
Stream size : 46.9 KiB (0%)
Language : English
Default : Yes
Forced : No

Text #2
ID : 4
Format : PGS
Muxing mode : zlib
Codec ID : S_HDMV/PGS
Codec ID/Info : Picture based subtitle format used on BDs/HD-DVDs
Duration : 1 h 55 min
Bit rate : 10.9 kb/s
Count of elements : 2810
Stream size : 8.97 MiB (0%)
Language : English
Default : No
Forced : No

Text #3
ID : 5
Format : PGS
Muxing mode : zlib
Codec ID : S_HDMV/PGS
Codec ID/Info : Picture based subtitle format used on BDs/HD-DVDs
Duration : 1 h 55 min
Bit rate : 13.2 kb/s
Count of elements : 3368
Stream size : 10.9 MiB (0%)
Title : SDH
Language : English
Default : No
Forced : No

Text #4
ID : 6
Format : PGS
Muxing mode : zlib
Codec ID : S_HDMV/PGS
Codec ID/Info : Picture based subtitle format used on BDs/HD-DVDs
Duration : 1 h 55 min
Bit rate : 10.4 kb/s
Count of elements : 2764
Stream size : 8.56 MiB (0%)
Language : Spanish
Default : No
Forced : No

Menu
00:00:00.000 : en:Walk Home
00:10:20.370 : en:Present
00:20:37.361 : en:Hunting
00:28:24.494 : en:Questions
00:38:55.542 : en:Indecent Conduct
00:55:11.683 : en:Get Out
01:01:09.791 : en:Marcus
01:12:32.765 : en:The Basement
01:24:07.459 : en:Groceries
01:28:39.022 : en:Christmas Eve
01:40:04.999 : en:Ammends
01:51:29.641 : en:Credits





Jagten / The Hunt (2012)


Jagten / The Hunt (2012)


Jagten / The Hunt (2012)


Jagten / The Hunt (2012)


Jagten / The Hunt (2012)