Tags
Language
Tags

Jake Shimabukuro: Life on Four Strings (2012)

Posted By: notbanned
720p (HD) / WEB-DL IMDb
Jake Shimabukuro: Life on Four Strings (2012)

Jake Shimabukuro: Life on Four Strings (2012)
WEB-DL | 1280x720 | .MKV/AVC @ 6000 Kbps | 53 min 40 s | 2.29 GiB
Audio: English EAC3 224 kbps, 2 channels | Subs: English
Genre: Documentary | Biography

This intimate documentary gives viewers a singular glimpse into Jake Shimabukuro, ukulele virtuoso, but also Jake, the young boy who grew up in a modest apartment to a single mother and unsuspectingly rose to international stardom.

General
Unique ID : 180457406325637350636658673444669797450 (0x87C2D50E86AB50984234F513F4B6B44A)
Complete name : Jake.Shimabukuro.Life.on.Four.Strings.2012.720p.mkv
Format : Matroska
Format version : Version 4 / Version 2
File size : 2.29 GiB
Duration : 53 min 40 s
Overall bit rate : 6 104 kb/s

Video
ID : 1
Format : AVC
Format/Info : Advanced Video Codec
Format profile : High@L3.1
Format settings, CABAC : Yes
Format settings, ReFrames : 4 frames
Codec ID : V_MPEG4/ISO/AVC
Duration : 53 min 40 s
Bit rate mode : Constant
Bit rate : 6 000 kb/s
Width : 1 280 pixels
Height : 720 pixels
Display aspect ratio : 16:9
Frame rate mode : Constant
Frame rate : 23.976 (24000/1001) FPS
Color space : YUV
Chroma subsampling : 4:2:0
Bit depth : 8 bits
Scan type : Progressive
Bits/(Pixel*Frame) : 0.272
Stream size : 2.20 GiB (96%)
Language : English
Default : Yes
Forced : No
Color range : Limited
Color primaries : BT.709
Transfer characteristics : BT.709
Matrix coefficients : BT.709

Audio
ID : 2
Format : E-AC-3
Format/Info : Enhanced Audio Coding 3
Format settings, Endianness : Big
Codec ID : A_EAC3
Duration : 53 min 40 s
Bit rate mode : Constant
Bit rate : 224 kb/s
Channel(s) : 2 channels
Channel positions : Front: L R
Sampling rate : 48.0 kHz
Frame rate : 187.500 FPS (256 spf)
Compression mode : Lossy
Stream size : 86.0 MiB (4%)
Language : English
Service kind : Complete Main
Default : Yes
Forced : No

Text
ID : 3
Format : UTF-8
Codec ID : S_TEXT/UTF8
Codec ID/Info : UTF-8 Plain Text
Duration : 52 min 6 s
Bit rate : 60 b/s
Count of elements : 664
Stream size : 23.0 KiB (0%)
Title : SDH
Language : English
Default : No
Forced : No


Screenshots:

Jake Shimabukuro: Life on Four Strings (2012)

Jake Shimabukuro: Life on Four Strings (2012)

Jake Shimabukuro: Life on Four Strings (2012)

Jake Shimabukuro: Life on Four Strings (2012)