Tags
Language
Tags

James May: Our Man in Japan (2020) [Complete Season 1]

Posted By: Without
1080p (FullHD) / WEB-DL IMDb
James May: Our Man in Japan (2020) [Complete Season 1]

James May: Our Man in Japan (2020)
WEB-DL 1080p | MKV | 6 x ~48 min | 6 x ~3.40 GB | 1920x1080 | AVC@ ~9382 kb/s | English AC3@640 kb/s
Subs: English (Forced), العربية, Dansk, Deutsch, Español, Suomi, Français, עברית, Bahasa Indonesia, हिन्दी
日本語, Italiano, 한국어, Norsk, Nederlands, Polski, Português, Русский, Svenska, Tamil, Telugu
ภาษาไทย, Türkçe, 中文
Genre: Documentary

James May has always been intrigued and seduced by the idea of Japan, yet this nation and its culture remains a complete mystery to him. Now he's on a one-man mission to immerse himself in its society, places, and people in a bid to unlock its extraordinary secrets. By taking on an epic journey across all of Japan from north to south, James is determined to gain a genuine understanding into why this unique land and its people are the way they are, what drives their whole culture, and what their approach to life can teach the rest of us. So far so good, but it won't be easy. He can't speak the language, he's clueless about Japanese etiquette but at least he knows there's a small tree called a banzai… Not only that, but Japan is one of the most contradictory and confusing places on earth. Here, classical art forms and haiku poetry rub shoulders with Godzilla, Cosplay, and some of the strangest obsessions on the planet, while stunning, peaceful vistas of gently falling cherry blossom …



General
James.May.Our.Man.in.Japan.S01E01.Go.1080p.AMZN.WEB-DL.DDP5.1.H.264-NTG.mkv
Format : Matroska
Format version : Version 4 / Version 2
File size : 3.43 GB
Duration : 48 min 58 s
Overall bit rate : 10.0 Mb/s
Encoded date : UTC 2020-01-03 05:05:24
Writing application : mkvmerge v21.0.0 ('Tardigrades Will Inherit The Earth') 64-bit
Writing library : libebml v1.3.5 + libmatroska v1.4.8

Video
ID : 1
Format : AVC
Format/Info : Advanced Video Codec
Format profile : High@L4
Format settings, CABAC : Yes
Format settings, ReFrames : 4 frames
Codec ID : V_MPEG4/ISO/AVC
Duration : 48 min 58 s
Bit rate mode : Constant
Bit rate : 9382 kb/s
Nominal bit rate : 10000 kb/s
Width : 1920 pixels
Height : 1080 pixels
Display aspect ratio : 16:9
Frame rate mode : Constant
Frame rate : 25.000 FPS
Color space : YUV
Chroma subsampling : 4:2:0
Bit depth : 8 bits
Scan type : Progressive
Bits/(Pixel*Frame) : 0.181
Stream size : 3.21 GB (94%)
Default : Yes
Forced : No
Color range : Limited
Color primaries : BT.709
Transfer characteristics : BT.709
Matrix coefficients : BT.709

Audio
ID : 2
Format : E-AC-3
Format/Info : Enhanced Audio Coding 3
Format settings, Endianness : Big
Codec ID : A_EAC3
Duration : 48 min 58 s
Bit rate mode : Constant
Bit rate : 640 kb/s
Channel(s) : 6 channels
Channel positions : Front: L C R, Side: L R, LFE
Sampling rate : 48.0 kHz
Frame rate : 187.500 FPS (256 spf)
Compression mode : Lossy
Stream size : 224 MB (6%)
Language : English
Default : Yes
Forced : No

Text #1
ID : 3
Format : UTF-8
Codec ID : S_TEXT/UTF8
Codec ID/Info : UTF-8 Plain Text
Duration : 43 min 17 s
Bit rate : 2 b/s
Count of elements : 46
Stream size : 933 Bytes (0%)
Title : Forced
Language : English
Default : Yes
Forced : Yes

Text #2
ID : 4
Format : UTF-8
Codec ID : S_TEXT/UTF8
Codec ID/Info : UTF-8 Plain Text
Duration : 48 min 21 s
Bit rate : 95 b/s
Count of elements : 1001
Stream size : 33.9 KiB (0%)
Language : English
Default : No
Forced : No

Text #3
ID : 5
Format : UTF-8
Codec ID : S_TEXT/UTF8
Codec ID/Info : UTF-8 Plain Text
Duration : 48 min 49 s
Bit rate : 95 b/s
Count of elements : 1013
Stream size : 34.0 KiB (0%)
Title : SDH
Language : English
Default : No
Forced : No

Text #4
ID : 6
Format : UTF-8
Codec ID : S_TEXT/UTF8
Codec ID/Info : UTF-8 Plain Text
Duration : 48 min 20 s
Bit rate : 143 b/s
Count of elements : 890
Stream size : 50.8 KiB (0%)
Language : Arabic
Default : No
Forced : No

Text #5
ID : 7
Format : UTF-8
Codec ID : S_TEXT/UTF8
Codec ID/Info : UTF-8 Plain Text
Duration : 48 min 20 s
Bit rate : 87 b/s
Count of elements : 889
Stream size : 31.1 KiB (0%)
Language : Danish
Default : No
Forced : No

Text #6
ID : 8
Format : UTF-8
Codec ID : S_TEXT/UTF8
Codec ID/Info : UTF-8 Plain Text
Duration : 48 min 21 s
Bit rate : 84 b/s
Count of elements : 751
Stream size : 30.0 KiB (0%)
Language : German
Default : No
Forced : No

Text #7
ID : 9
Format : UTF-8
Codec ID : S_TEXT/UTF8
Codec ID/Info : UTF-8 Plain Text
Duration : 48 min 20 s
Bit rate : 89 b/s
Count of elements : 890
Stream size : 31.8 KiB (0%)
Title : Latinoamérica
Language : Spanish
Default : No
Forced : No

Text #8
ID : 10
Format : UTF-8
Codec ID : S_TEXT/UTF8
Codec ID/Info : UTF-8 Plain Text
Duration : 48 min 20 s
Bit rate : 87 b/s
Count of elements : 890
Stream size : 31.0 KiB (0%)
Title : España
Language : Spanish
Default : No
Forced : No

Text #9
ID : 11
Format : UTF-8
Codec ID : S_TEXT/UTF8
Codec ID/Info : UTF-8 Plain Text
Duration : 48 min 20 s
Bit rate : 82 b/s
Count of elements : 890
Stream size : 29.2 KiB (0%)
Language : Finnish
Default : No
Forced : No

Text #10
ID : 12
Format : UTF-8
Codec ID : S_TEXT/UTF8
Codec ID/Info : UTF-8 Plain Text
Duration : 48 min 20 s
Bit rate : 91 b/s
Count of elements : 888
Stream size : 32.2 KiB (0%)
Language : French
Default : No
Forced : No

Text #11
ID : 13
Format : UTF-8
Codec ID : S_TEXT/UTF8
Codec ID/Info : UTF-8 Plain Text
Duration : 48 min 20 s
Bit rate : 131 b/s
Count of elements : 890
Stream size : 46.6 KiB (0%)
Language : Hebrew
Default : No
Forced : No

Text #12
ID : 14
Format : UTF-8
Codec ID : S_TEXT/UTF8
Codec ID/Info : UTF-8 Plain Text
Duration : 48 min 20 s
Bit rate : 226 b/s
Count of elements : 890
Stream size : 80.1 KiB (0%)
Language : Hindi
Default : No
Forced : No

Text #13
ID : 15
Format : UTF-8
Codec ID : S_TEXT/UTF8
Codec ID/Info : UTF-8 Plain Text
Duration : 48 min 20 s
Bit rate : 77 b/s
Count of elements : 890
Stream size : 27.6 KiB (0%)
Language : Indonesian
Default : No
Forced : No

Text #14
ID : 16
Format : UTF-8
Codec ID : S_TEXT/UTF8
Codec ID/Info : UTF-8 Plain Text
Duration : 48 min 20 s
Bit rate : 88 b/s
Count of elements : 890
Stream size : 31.4 KiB (0%)
Language : Italian
Default : No
Forced : No

Text #15
ID : 17
Format : UTF-8
Codec ID : S_TEXT/UTF8
Codec ID/Info : UTF-8 Plain Text
Duration : 48 min 21 s
Bit rate : 67 b/s
Count of elements : 719
Stream size : 23.8 KiB (0%)
Language : Japanese
Default : No
Forced : No

Text #16
ID : 18
Format : UTF-8
Codec ID : S_TEXT/UTF8
Codec ID/Info : UTF-8 Plain Text
Duration : 48 min 20 s
Bit rate : 93 b/s
Count of elements : 890
Stream size : 33.1 KiB (0%)
Language : Korean
Default : No
Forced : No

Text #17
ID : 19
Format : UTF-8
Codec ID : S_TEXT/UTF8
Codec ID/Info : UTF-8 Plain Text
Duration : 48 min 20 s
Bit rate : 85 b/s
Count of elements : 890
Stream size : 30.3 KiB (0%)
Language : Norwegian Bokmal
Default : No
Forced : No

Text #18
ID : 20
Format : UTF-8
Codec ID : S_TEXT/UTF8
Codec ID/Info : UTF-8 Plain Text
Duration : 48 min 20 s
Bit rate : 84 b/s
Count of elements : 888
Stream size : 30.0 KiB (0%)
Language : Dutch
Default : No
Forced : No

Text #19
ID : 21
Format : UTF-8
Codec ID : S_TEXT/UTF8
Codec ID/Info : UTF-8 Plain Text
Duration : 48 min 20 s
Bit rate : 83 b/s
Count of elements : 885
Stream size : 29.6 KiB (0%)
Language : Polish
Default : No
Forced : No

Text #20
ID : 22
Format : UTF-8
Codec ID : S_TEXT/UTF8
Codec ID/Info : UTF-8 Plain Text
Duration : 48 min 20 s
Bit rate : 83 b/s
Count of elements : 889
Stream size : 29.5 KiB (0%)
Language : Portuguese
Default : No
Forced : No

Text #21
ID : 23
Format : UTF-8
Codec ID : S_TEXT/UTF8
Codec ID/Info : UTF-8 Plain Text
Duration : 48 min 20 s
Bit rate : 162 b/s
Count of elements : 890
Stream size : 57.7 KiB (0%)
Language : Russian
Default : No
Forced : No

Text #22
ID : 24
Format : UTF-8
Codec ID : S_TEXT/UTF8
Codec ID/Info : UTF-8 Plain Text
Duration : 48 min 20 s
Bit rate : 86 b/s
Count of elements : 890
Stream size : 30.8 KiB (0%)
Language : Swedish
Default : No
Forced : No

Text #23
ID : 25
Format : UTF-8
Codec ID : S_TEXT/UTF8
Codec ID/Info : UTF-8 Plain Text
Duration : 48 min 20 s
Bit rate : 253 b/s
Count of elements : 890
Stream size : 89.7 KiB (0%)
Language : Tamil
Default : No
Forced : No

Text #24
ID : 26
Format : UTF-8
Codec ID : S_TEXT/UTF8
Codec ID/Info : UTF-8 Plain Text
Duration : 48 min 20 s
Bit rate : 239 b/s
Count of elements : 890
Stream size : 84.7 KiB (0%)
Language : Telugu
Default : No
Forced : No

Text #25
ID : 27
Format : UTF-8
Codec ID : S_TEXT/UTF8
Codec ID/Info : UTF-8 Plain Text
Duration : 48 min 20 s
Bit rate : 206 b/s
Count of elements : 890
Stream size : 73.0 KiB (0%)
Language : Thai
Default : No
Forced : No

Text #26
ID : 28
Format : UTF-8
Codec ID : S_TEXT/UTF8
Codec ID/Info : UTF-8 Plain Text
Duration : 48 min 20 s
Bit rate : 79 b/s
Count of elements : 890
Stream size : 28.3 KiB (0%)
Language : Turkish
Default : No
Forced : No

Text #27
ID : 29
Format : UTF-8
Codec ID : S_TEXT/UTF8
Codec ID/Info : UTF-8 Plain Text
Duration : 48 min 20 s
Bit rate : 73 b/s
Count of elements : 889
Stream size : 26.0 KiB (0%)
Title : 中文(简体)
Language : Chinese
Default : No
Forced : No

Text #28
ID : 30
Format : UTF-8
Codec ID : S_TEXT/UTF8
Codec ID/Info : UTF-8 Plain Text
Duration : 48 min 20 s
Bit rate : 74 b/s
Count of elements : 889
Stream size : 26.2 KiB (0%)
Title : 中文(繁體)
Language : Chinese
Default : No
Forced : No

Menu
00:00:00.000 : en:Amazon Original
00:00:05.000 : en:Introduction
00:01:32.000 : en:Title Sequence
00:01:46.000 : en:Starting in Hokkaido
00:04:12.000 : en:Dog sledding
00:10:58.000 : en:A Japanese Haiku
00:12:35.000 : en:Yatai in Obihiro
00:16:40.000 : en:A regulation snowball fight
00:23:36.000 : en:Snow delay
00:26:10.000 : en:Searching for a snack
00:29:14.000 : en:Samurai swords
00:35:09.000 : en:Breweries in Sapporo
00:38:52.000 : en:Fishing for octopus in Otaru
00:46:05.000 : en:So far on the Japanese journey
00:48:19.000 : en:End Credits



WEB-DL 1080p Screenshots

James May: Our Man in Japan (2020) [Complete Season 1]

James May: Our Man in Japan (2020) [Complete Season 1]

James May: Our Man in Japan (2020) [Complete Season 1]

James May: Our Man in Japan (2020) [Complete Season 1]

James May: Our Man in Japan (2020) [Complete Season 1]

James May: Our Man in Japan (2020) [Complete Season 1]

James May: Our Man in Japan (2020) [Complete Season 1]


Come Visit My Blog (•‿•)