Janis (2015)

Posted By: Tavaz
SD / HDTV IMDb
Janis (2015)

Janis (2015)
HDTV | MKV | 720x404 | French | H264 @ 1000 kbps | AAC @ 132 kbps | 1 h 39 min | 805 MiB
Genre: Documentary, Biography, Music

Janis Joplin est l’une des artistes les plus impressionnantes et une des plus mythiques chanteuses de rock et de blues de tous les temps. Mais elle était bien plus que cela : au-delà de son personnage de rock-star, de sa voix extraordinaire et de la légende, le documentaire Janis nous dépeint une femme sensible, vulnérable et puissante. C’est l’histoire d’une vie courte, mouvementée et passionnante qui changea la musique pour toujours.

Janis.Little.Girl.Blue.DOC.FRENCH.HDTV.x264-ABiTBOL.mkv (805.5 MB)



General
Unique ID : 259345356197194287591781860346941917762 (0xC31C194745FA52A44C93C5C962ABCA42)
Complete name : ./Janis.Little.Girl.Blue.DOC.FRENCH.HDTV.x264-ABiTBOL.mkv
Format : Matroska
Format version : Version 4 / Version 2
File size : 805 MiB
Duration : 1 h 39 min
Overall bit rate : 1 136 kb/s
Encoded date : UTC 2018-01-09 18:09:51
Writing application : mkvmerge v7.8.0 ('River Man') 64bit built on Mar 28 2015 07:20:28
Writing library : libebml v1.3.1 + libmatroska v1.4.2

Video
ID : 1
Format : AVC
Format/Info : Advanced Video Codec
Format profile : High@L3.1
Format settings : CABAC / 5 Ref Frames
Format settings, CABAC : Yes
Format settings, RefFrames : 5 frames
Codec ID : V_MPEG4/ISO/AVC
Duration : 1 h 39 min
Bit rate : 1 001 kb/s
Width : 720 pixels
Height : 404 pixels
Display aspect ratio : 16:9
Frame rate mode : Constant
Frame rate : 25.000 FPS
Color space : YUV
Chroma subsampling : 4:2:0
Bit depth : 8 bits
Scan type : Progressive
Bits/(Pixel*Frame) : 0.138
Stream size : 709 MiB (88%)
Writing library : x264 core 146
Encoding settings : cabac=1 / ref=5 / deblock=1:0:0 / analyse=0x3:0x113 / me=umh / subme=8 / psy=1 / psy_rd=1.00:0.00 / mixed_ref=1 / me_range=16 / chroma_me=1 / trellis=1 / 8x8dct=1 / cqm=0 / deadzone=21,11 / fast_pskip=1 / chroma_qp_offset=-2 / threads=3 / lookahead_threads=1 / sliced_threads=0 / nr=0 / decimate=1 / interlaced=0 / bluray_compat=0 / constrained_intra=0 / bframes=3 / b_pyramid=2 / b_adapt=2 / b_bias=0 / direct=3 / weightb=1 / open_gop=0 / weightp=2 / keyint=250 / keyint_min=25 / scenecut=40 / intra_refresh=0 / rc_lookahead=50 / rc=crf / mbtree=1 / crf=21.0 / qcomp=0.60 / qpmin=0 / qpmax=69 / qpstep=4 / ip_ratio=1.40 / aq=1:1.00
Default : Yes
Forced : No
Color range : Limited
Matrix coefficients : BT.709

Audio
ID : 2
Format : AAC
Format/Info : Advanced Audio Codec
Format profile : LC
Codec ID : A_AAC-2
Duration : 1 h 39 min
Bit rate : 132 kb/s
Channel(s) : 2 channels
Channel positions : Front: L R
Sampling rate : 48.0 kHz
Frame rate : 46.875 FPS (1024 SPF)
Compression mode : Lossy
Delay relative to video : 9 ms
Stream size : 94.5 MiB (12%)
Language : French
Default : Yes
Forced : No





Janis (2015)


Janis (2015)


Janis (2015)


Janis (2015)


Janis (2015)