Tags
Language
Tags

Jay Mohr: Funny for a Girl (2012)

Posted By: notbanned
Jay Mohr: Funny for a Girl (2012)

Jay Mohr: Funny for a Girl (2012)
WEBRip | 1920x1080 | .MKV/AVC @ 5620 Kbps | 57 min 38 s | 2.31 GiB
Audio: English EAC3 128 kbps, 2 channels | Subs: English
Genre: Documentary | Comedy

"Funny For A Girl," Jay's newest one hour special, and the first in over 7 years, is the hilarious telling of stories of the challenges of raising two kids, keeping his family on the right path, along with his legendary impressions (Christopher Walken, Norm MacDonald, Adam Sandler and a host of others), and his hilarious real life stories in Hollywood. As Jay says, "the stories are all true" and they are all funny too. Jay Mohr has had a career in comedy, television, radio, and film that spans over 20 years… from his beginnings as a cast member on Saturday Night Live from 1993 to 1995, to his his expansive film career of over 30 films including his classical break out performance as sports agent Bob Sugar in Jerry McGuire.
More info


General
Unique ID : 187523364483045292145389533905885919195 (0x8D13AFB0E6221420BEFA0859CB70F7DB)
Complete name : Jay.Mohr.Funny.for.a.Girl.2012.1080p.mkv
Format : Matroska
Format version : Version 4 / Version 2
File size : 2.31 GiB
Duration : 57 min 38 s
Overall bit rate mode : Variable
Overall bit rate : 5 749 kb/s

Video
ID : 1
Format : AVC
Format/Info : Advanced Video Codec
Format profile : Main@L4
Format settings, CABAC : Yes
Format settings, ReFrames : 3 frames
Codec ID : V_MPEG4/ISO/AVC
Duration : 57 min 37 s
Bit rate mode : Variable
Bit rate : 5 620 kb/s
Maximum bit rate : 8 430 kb/s
Width : 1 920 pixels
Height : 1 080 pixels
Display aspect ratio : 16:9
Frame rate mode : Constant
Frame rate : 23.976 (24000/1001) FPS
Color space : YUV
Chroma subsampling : 4:2:0
Bit depth : 8 bits
Scan type : Progressive
Bits/(Pixel*Frame) : 0.113
Stream size : 2.26 GiB (98%)
Writing library : x264 core 118
Encoding settings : cabac=1 / ref=3 / deblock=1:0:0 / analyse=0x1:0x111 / me=umh / subme=10 / psy=1 / psy_rd=1.00:0.00 / mixed_ref=1 / me_range=24 / chroma_me=1 / trellis=2 / 8x8dct=0 / cqm=0 / deadzone=21,11 / fast_pskip=1 / chroma_qp_offset=-2 / threads=6 / sliced_threads=0 / nr=0 / decimate=1 / interlaced=0 / bluray_compat=0 / constrained_intra=0 / bframes=2 / b_pyramid=0 / b_adapt=2 / b_bias=0 / direct=3 / weightb=1 / open_gop=0 / weightp=2 / keyint=48 / keyint_min=25 / scenecut=0 / intra_refresh=0 / rc_lookahead=0 / rc=2pass / mbtree=1 / bitrate=5620 / ratetol=1.0 / qcomp=0.50 / qpmin=6 / qpmax=51 / qpstep=4 / cplxblur=20.0 / qblur=0.5 / vbv_maxrate=8430 / vbv_bufsize=11240 / nal_hrd=vbr / ip_ratio=1.40 / aq=1:1.00
Default : Yes
Forced : No

Audio
ID : 2
Format : E-AC-3
Format/Info : Enhanced Audio Coding 3
Format settings, Endianness : Big
Codec ID : A_EAC3
Duration : 57 min 38 s
Bit rate mode : Constant
Bit rate : 128 kb/s
Channel(s) : 2 channels
Channel positions : Front: L R
Sampling rate : 48.0 kHz
Frame rate : 187.500 FPS (256 spf)
Compression mode : Lossy
Stream size : 52.8 MiB (2%)
Language : English
Service kind : Complete Main
Default : Yes
Forced : No

Text #1
ID : 3
Format : UTF-8
Codec ID : S_TEXT/UTF8
Codec ID/Info : UTF-8 Plain Text
Duration : 57 min 26 s
Bit rate : 103 b/s
Count of elements : 2165
Stream size : 43.6 KiB (0%)
Language : English
Default : No
Forced : No

Text #2
ID : 4
Format : UTF-8
Codec ID : S_TEXT/UTF8
Codec ID/Info : UTF-8 Plain Text
Duration : 57 min 27 s
Bit rate : 101 b/s
Count of elements : 1070
Stream size : 42.8 KiB (0%)
Language : Spanish
Default : No
Forced : No


Screenshots:

Jay Mohr: Funny for a Girl (2012)

Jay Mohr: Funny for a Girl (2012)

Jay Mohr: Funny for a Girl (2012)

Jay Mohr: Funny for a Girl (2012)