Je n'ai rien oublié (2010)

Posted By: FenixN
Je n'ai rien oublié (2010)

Je n'ai rien oublié (2010)
BDRip | MKV / x264, 4845 kb/s | 1280x544 | 01:38:30 | French: DTS 1510 kb/s (6 ch) | 4.37 GB
Genre: Drama | France / Germany

Depuis des années, Conrad Lang vit aux crochets de la riche famille Senn. D?abord camarade d?enfance de Thomas, puis gardien de leur maison de vacances à Biarritz, ils l?utilisent comme bon leur semble et lui s?en satisfait.Mais lorsque son état de santé se dégrade, lorsqu?il se met à raconter à Simone, jeune épouse de l?héritier Senn, des souvenirs d?enfance qui ne collent pas tout à fait à l?histoire officielle de la famille, Elvira, la matriarche, se montre étrangement menacée. Comme si ce vieux fou inoffensif portait en lui les moyens de la détruire.C?est alors qu?entre Conrad et Simone va naître une amitié étrange, amenant la jeune femme à faire face, pour lui, à une Elvira bien plus dangereuse qu?il n?y paraît.

imdb: 7,0/10 (107 votes)

Format : Matroska
File size : 4.37 GiB
Duration : 1h 38mn
Overall bit rate : 6 352 Kbps
Encoded date : UTC 2011-06-26 22:13:47
Writing application : mkvmerge v4.8.0 ('I Got The…') built on May 24 2011 03:12:58
Writing library : libebml v1.2.0 + libmatroska v1.1.0

Video
ID : 1
Format : AVC
Format/Info : Advanced Video Codec
Format profile : High@L4.1
Format settings, CABAC : Yes
Format settings, ReFrames : 5 frames
Codec ID : V_MPEG4/ISO/AVC
Duration : 1h 38mn
Bit rate : 4 845 Kbps
Width : 1 280 pixels
Height : 544 pixels
Display aspect ratio : 2.35:1
Frame rate : 24.000 fps
Color space : YUV
Chroma subsampling : 4:2:0
Bit depth : 8 bits
Scan type : Progressive
Bits/(Pixel*Frame) : 0.290
Stream size : 3.24 GiB (74%)
Writing library : x264 core 115 r2008 4c552d8
Encoding settings : cabac=1 / ref=5 / deblock=1:0:0 / analyse=0x3:0x133 / me=umh / subme=7 / psy=1 / psy_rd=1.00:0.00 / mixed_ref=1 / me_range=16 / chroma_me=0 / trellis=1 / 8x8dct=1 / cqm=0 / deadzone=21,11 / fast_pskip=0 / chroma_qp_offset=-2 / threads=12 / sliced_threads=0 / nr=0 / decimate=1 / interlaced=0 / bluray_compat=0 / constrained_intra=0 / bframes=3 / b_pyramid=2 / b_adapt=1 / b_bias=0 / direct=1 / weightb=1 / open_gop=0 / weightp=2 / keyint=250 / keyint_min=24 / scenecut=40 / intra_refresh=0 / rc_lookahead=40 / rc=2pass / mbtree=1 / bitrate=4845 / ratetol=1.0 / qcomp=0.60 / qpmin=0 / qpmax=69 / qpstep=4 / cplxblur=20.0 / qblur=0.5 / ip_ratio=1.40 / aq=1:1.00
Language : French

Audio
ID : 2
Format : DTS
Format/Info : Digital Theater Systems
Codec ID : A_DTS
Duration : 1h 38mn
Bit rate mode : Constant
Bit rate : 1 510 Kbps
Channel(s) : 6 channels
Channel positions : Front: L C R, Side: L R, LFE
Sampling rate : 48.0 KHz
Bit depth : 24 bits
Compression mode : Lossy
Stream size : 1.04 GiB (24%)
Title : DTS 5.1
Language : French


screenshot
Je n'ai rien oublié (2010)

Je n'ai rien oublié (2010)

Je n'ai rien oublié (2010)

Je n'ai rien oublié (2010)


Welcome to the best movies collection (English, German, French language), best software, best eLearning video and many-many more: LINK
Do not forget to check my blog! Updated regularly!