Tags
Language
Tags

PBS - Jerusalem: Center of the World (2009) [Repost]

Posted By: Tutorial
PBS - Jerusalem: Center of the World (2009) [Repost]

PBS - Jerusalem: Center of the World (2009)
DVDRip | 608 x 336 | .AVI/XviD @ 976 Kbps | 1h 55mn | English MP3 128 Kbps, 2 channels | 931 MB
Genre: Documentary

For over 40 centuries, untold numbers of Jews, Christians and Muslims have come to Jerusalem to look for God, while billions more have worshiped from afar. Jerusalem: Center of the World, a two-hour epic event, delves into the historical facts and religious beliefs that have led so many thousands to live and die for this city.

General
Complete name : PBS.Jerusalem.Center.of.the.World.avi
Format : AVI
Format/Info : Audio Video Interleave
File size : 931 MiB
Duration : 1h 55mn
Overall bit rate mode : Variable
Overall bit rate : 1 123 Kbps
Writing application : VirtualDubMod 1.5.10.2 (build 2540/release)
Writing library : VirtualDubMod build 2540/release

Video
ID : 0
Format : MPEG-4 Visual
Format profile : Advanced Simple@L5
Format settings, BVOP : 1
Format settings, QPel : No
Format settings, GMC : No warppoints
Format settings, Matrix : Default (H.263)
Muxing mode : Packed bitstream
Codec ID : XVID
Codec ID/Hint : XviD
Duration : 1h 55mn
Bit rate : 976 Kbps
Width : 608 pixels
Height : 336 pixels
Display aspect ratio : 16:9
Frame rate : 29.970 fps
Color space : YUV
Chroma subsampling : 4:2:0
Bit depth : 8 bits
Scan type : Progressive
Compression mode : Lossy
Bits/(Pixel*Frame) : 0.159
Stream size : 809 MiB (87%)
Writing library : XviD 1.2.1 (UTC 2008-12-04)

Audio
ID : 1
Format : MPEG Audio
Format version : Version 1
Format profile : Layer 3
Mode : Joint stereo
Mode extension : MS Stereo
Codec ID : 55
Codec ID/Hint : MP3
Duration : 1h 55mn
Bit rate mode : Variable
Bit rate : 128 Kbps
Channel(s) : 2 channels
Sampling rate : 48.0 KHz
Compression mode : Lossy
Stream size : 111 MiB (12%)
Alignment : Aligned on interleaves
Interleave, duration : 24 ms (0.72 video frame)
Interleave, preload duration : 497 ms
Writing library : LAME3.90.
Encoding settings : -m j -V 4 -q 2 -lowpass 17.6 –abr 128
Screenshots

PBS - Jerusalem: Center of the World (2009) [Repost]

PBS - Jerusalem: Center of the World (2009) [Repost]

PBS - Jerusalem: Center of the World (2009) [Repost]

PBS - Jerusalem: Center of the World (2009) [Repost]

PBS - Jerusalem: Center of the World (2009) [Repost]

Welcome to my blog - daily update!

PBS - Jerusalem: Center of the World (2009) [Repost]