Tags
Language
Tags

Cosmic Picture - Jerusalem (2021)

Posted By: notbanned
1080p (FullHD) / HDTV IMDb
Cosmic Picture - Jerusalem (2021)

Cosmic Picture - Jerusalem (2021)
HDTV | 1920x1080 | .MP4/AVC @ 4712 Kbps | 44 min 13 s | 1.51 GiB
Audio: English AAC 160 kbps, 2 channels | Subs: English
Genre: Documentary

Jerusalem' takes audiences on an inspiring and eye-opening tour of one of the world’s oldest and most enigmatic cities. Destroyed and rebuilt countless times over 5,000 years, Jerusalem’s enduring appeal remains a mystery.

General
Complete name : Jerusalem.1080p.mp4
Format : MPEG-4
Format profile : Base Media
Codec ID : isom (isom/iso2/avc1/mp41)
File size : 1.51 GiB
Duration : 44 min 13 s
Overall bit rate mode : Variable
Overall bit rate : 4 876 kb/s

Video
ID : 1
Format : AVC
Format/Info : Advanced Video Codec
Format profile : High@L4.1
Format settings, CABAC : No
Format settings, ReFrames : 2 frames
Format settings, GOP : M=1, N=12
Codec ID : avc1
Codec ID/Info : Advanced Video Coding
Duration : 44 min 13 s
Bit rate : 4 712 kb/s
Width : 1 920 pixels
Height : 1 080 pixels
Display aspect ratio : 16:9
Frame rate mode : Constant
Frame rate : 25.000 FPS
Color space : YUV
Chroma subsampling : 4:2:0
Bit depth : 8 bits
Scan type : Progressive
Bits/(Pixel*Frame) : 0.091
Stream size : 1.46 GiB (97%)

Audio
ID : 2
Format : AAC
Format/Info : Advanced Audio Codec
Format profile : LC
Codec ID : 40
Duration : 44 min 13 s
Bit rate mode : Constant
Bit rate : 160 kb/s
Channel(s) : 2 channels
Channel positions : Front: L R
Sampling rate : 48.0 kHz
Frame rate : 46.875 FPS (1024 spf)
Compression mode : Lossy
Stream size : 50.6 MiB (3%)
Default : Yes
Alternate group : 1

Text
ID : 3
Format : Timed Text
Muxing mode : sbtl
Codec ID : tx3g
Duration : 42 min 35 s
Bit rate mode : Variable
Bit rate : 49 b/s
Stream size : 15.3 KiB (0%)
Language : Avestan
Default : Yes
Forced : No
Alternate group : 3


Screenshots:

Cosmic Picture - Jerusalem (2021)

Cosmic Picture - Jerusalem (2021)

Cosmic Picture - Jerusalem (2021)

Cosmic Picture - Jerusalem (2021)