Tags
Language
Tags

Jesus Christ Superstar Live in Concert (2018)

Posted By: Tavaz
1080p (FullHD) / WEB-DL IMDb
Jesus Christ Superstar Live in Concert (2018)

Jesus Christ Superstar Live in Concert (2018)
WEB-DL | MKV | 1920x1080 | English | H264 @ 10000 kbps | E-AC-3 @ 192 kbps | 1 h 39 min | 7.02 GiB
Subtitles: English
Genre: Drama, Musical

If you missed it on NBC. ;-)

The award-winning show is re-imagined as a live concert event, featuring an all-star cast of recording artists, set during the last week of Jesus' life as he deals with betrayal, love and jealousy, and told from the perspective of Judas.

7805587cf0224102a5d05ce7ab6cd027.mkv (7.0 GB)



General
Unique ID : 226984419015291521879769655180447305285 (0xAAC39BE41665F1A3E3588E833D15CE45)
Complete name : ./7805587cf0224102a5d05ce7ab6cd027.mkv
Format : Matroska
Format version : Version 4 / Version 2
File size : 7.02 GiB
Duration : 1 h 39 min
Overall bit rate : 10.1 Mb/s
Encoded date : UTC 2018-04-03 07:20:10
Writing application : mkvmerge v21.0.0 ('Tardigrades Will Inherit The Earth') 64-bit
Writing library : libebml v1.3.5 + libmatroska v1.4.8

Video
ID : 1
Format : AVC
Format/Info : Advanced Video Codec
Format profile : High@L4
Format settings : CABAC / 4 Ref Frames
Format settings, CABAC : Yes
Format settings, RefFrames : 4 frames
Codec ID : V_MPEG4/ISO/AVC
Duration : 1 h 39 min
Bit rate mode : Constant
Bit rate : 10 000 kb/s
Width : 1 920 pixels
Height : 1 080 pixels
Display aspect ratio : 16:9
Frame rate mode : Constant
Frame rate : 29.970 (30000/1001) FPS
Color space : YUV
Chroma subsampling : 4:2:0
Bit depth : 8 bits
Scan type : Progressive
Bits/(Pixel*Frame) : 0.161
Stream size : 6.88 GiB (98%)
Default : Yes
Forced : No
Color range : Limited
Color primaries : BT.709
Transfer characteristics : BT.709
Matrix coefficients : BT.709

Audio
ID : 2
Format : E-AC-3
Format/Info : Enhanced Audio Coding 3
Format settings, Endianness : Big
Codec ID : A_EAC3
Duration : 1 h 39 min
Bit rate mode : Constant
Bit rate : 192 kb/s
Channel(s) : 6 channels
Channel positions : Front: L C R, Side: L R, LFE
Sampling rate : 48.0 kHz
Frame rate : 187.500 FPS (256 SPF)
Compression mode : Lossy
Stream size : 137 MiB (2%)
Language : English
Service kind : Complete Main
Default : Yes
Forced : No

Text #1
ID : 3
Format : UTF-8
Codec ID : S_TEXT/UTF8
Codec ID/Info : UTF-8 Plain Text
Duration : 1 h 29 min
Bit rate : 62 b/s
Count of elements : 1942
Stream size : 40.9 KiB (0%)
Language : English
Default : No
Forced : No

Text #2
ID : 4
Format : UTF-8
Codec ID : S_TEXT/UTF8
Codec ID/Info : UTF-8 Plain Text
Duration : 1 h 29 min
Bit rate : 62 b/s
Count of elements : 1951
Stream size : 41.0 KiB (0%)
Title : SDH
Language : English
Default : No
Forced : No





Jesus Christ Superstar Live in Concert (2018)


Jesus Christ Superstar Live in Concert (2018)


Jesus Christ Superstar Live in Concert (2018)


Jesus Christ Superstar Live in Concert (2018)


Jesus Christ Superstar Live in Concert (2018)