Tags
Language
Tags
April 2024
Su Mo Tu We Th Fr Sa
31 1 2 3 4 5 6
7 8 9 10 11 12 13
14 15 16 17 18 19 20
21 22 23 24 25 26 27
28 29 30 1 2 3 4

National Geographic - Jesus Rise to Power (2013)

Posted By: Tutorial
720p (HD) / HDTV
National Geographic - Jesus Rise to Power (2013)

National Geographic - Jesus Rise to Power (2013)
HDTV | 1280 x 720 | .MKV/AVC @ 3000 Kbps | 3x~49mn | 3.48 GB
Audio: English AC-3 320 Kbps, 2 channels | Subs: None
Genre: Documentary

Unraveling an epic human drama filled with suspense, political intrigue, brutal religious persecution and sheer luck – Dr Michael Scott looks at how the religious and political force of Christianity became permanently woven into the fabric of the Roman Empire becoming the official religion of the Roman Empire. This is the story of how, in less than four centuries, the little known cult of Jesus rose from a disparate collection of beliefs into a dynamic, coherent force that would one day dominate the world

Part 1: Messiahs
It may just be the most significant political move in human history. The story of a struggle that saw a small Jewish sect take over the most powerful empire the world had ever seen. Dr Michael Scott heads to the sites of early Christianity to investigate this epic human drama filled with suspense, political intrigue, brutal religious persecution and sheer luck. This exclusive drama documentary brings to life the hard early days of Christianity, while Dr Scott looks for the traces of the martyrs in France, Italy, the Middle East and North Africa.


Part 2: Martyrs
Rome’s attempt to stamp out Christianity ends up inspiring it as the cult of martyrdom, with death considered a ‘baptism of blood’, becomes a heroic victory over their oppressors


Part 3: Christians
In less than four centuries, Christianity evolves from the crucifixion of Jesus into a religious and political force, permanently woven into the fabric of the Roman Empire

Related Documentaries:
The Bible (2013)
Catholicism (2011)
National Geographic - Riddles of the Bible: Season 1 (2008)
National Geographic - Riddles of the Bible: Season 2 (2010)
National Geographic Classics - Biblical Mysteries (2006 - 2012)
National Geographic - Deadly Journeys of the Apostles (2015)
Channel 5 - Apocalypse Code: The Bible Prediction (2015)
Channel 4 - Crucifixion (2012)
BBC - Bible's Buried Secrets (2011)
BBC - Jesus: The Real Story (2001)
ZDF - The Biblical Plagues: Series 1 (2014)
Discovery Channel - The Lost Tomb of Jesus (2007)
National Geographic - The Jesus Mysteries (2014)
Smithsonian Channel - The Gospel of Jesus's Wife (2014)
National Geographic - The Ten Plagues of the Bible (2008)
History Channel - The Egyptian Book of the Dead (2006)
CNN - Finding Jesus: Faith Fact Forgery (2015)
BBC - A History of Christianity (2009)

General
Unique ID : 12751587427833242124376139034519276108 (0x997DDCCD23A967A1848DA8DA35E0A4C)
Complete name : Jesus.Rise.to.Power.1of3.mkv
Format : Matroska
Format version : Version 2
File size : 1.16 GiB
Duration : 49 min 48 s
Overall bit rate : 3 326 kb/s
Writing application : Lavf53.24.2
Writing library : Lavf53.24.2

Video
ID : 1
Format : AVC
Format/Info : Advanced Video Codec
Format profile : Baseline@L3.1
Format settings, CABAC : No
Format settings, ReFrames : 1 frame
Codec ID : V_MPEG4/ISO/AVC
Duration : 49 min 48 s
Bit rate : 3 000 kb/s
Width : 1 280 pixels
Height : 720 pixels
Display aspect ratio : 16:9
Frame rate mode : Constant
Frame rate : 25.000 FPS
Color space : YUV
Chroma subsampling : 4:2:0
Bit depth : 8 bits
Scan type : Progressive
Bits/(Pixel*Frame) : 0.130
Stream size : 1.02 GiB (88%)
Writing library : x264 core 118
Encoding settings : cabac=0 / ref=1 / deblock=1:0:0 / analyse=0x1:0x111 / me=dia / subme=0 / psy=0 / mixed_ref=0 / me_range=16 / chroma_me=1 / trellis=0 / 8x8dct=0 / cqm=0 / deadzone=21,11 / fast_pskip=1 / chroma_qp_offset=0 / threads=2 / sliced_threads=0 / nr=0 / decimate=1 / interlaced=0 / bluray_compat=0 / constrained_intra=0 / bframes=0 / weightp=0 / keyint=250 / keyint_min=25 / scenecut=0 / intra_refresh=0 / rc=abr / mbtree=0 / bitrate=3000 / ratetol=1.0 / qcomp=0.60 / qpmin=10 / qpmax=51 / qpstep=4 / ip_ratio=1.40 / aq=0
Default : Yes
Forced : No

Audio
ID : 2
Format : AC-3
Format/Info : Audio Coding 3
Format settings, Endianness : Big
Codec ID : A_AC3
Duration : 49 min 48 s
Bit rate mode : Constant
Bit rate : 320 kb/s
Channel(s) : 2 channels
Channel positions : Front: L R
Sampling rate : 48.0 kHz
Frame rate : 31.250 FPS (1536 spf)
Bit depth : 16 bits
Compression mode : Lossy
Stream size : 114 MiB (10%)
Service kind : Complete Main
Default : Yes
Forced : No
Screenshots

National Geographic - Jesus Rise to Power (2013)

National Geographic - Jesus Rise to Power (2013)

National Geographic - Jesus Rise to Power (2013)

Welcome to my blog - daily update!